<?xml version="1.0" standalone="no"?>
<!DOCTYPE svg PUBLIC "-//W3C//DTD SVG 1.1//EN" "http://www.w3.org/Graphics/SVG/1.1/DTD/svg11.dtd" >
<svg xmlns="http://www.w3.org/2000/svg">
<metadata></metadata>
<defs>
<font id="CabinRegular" horiz-adv-x="1261" >
<font-face units-per-em="2048" ascent="1638" descent="-410" />
<missing-glyph horiz-adv-x="460" />
<glyph horiz-adv-x="0" />
<glyph horiz-adv-x="2048" />
<glyph unicode="&#xd;" horiz-adv-x="681" />
<glyph unicode=" "  horiz-adv-x="460" />
<glyph unicode="&#x09;" horiz-adv-x="460" />
<glyph unicode="&#xa0;" horiz-adv-x="460" />
<glyph unicode="!" horiz-adv-x="495" d="M121 1536h254l-62 -1126h-131zM162 0v176h172v-176h-172z" />
<glyph unicode="&#x22;" horiz-adv-x="823" d="M82 1536h192l-41 -614h-110zM553 1536h188l-41 -614h-106z" />
<glyph unicode="#" horiz-adv-x="1441" d="M68 442l75 172h236l98 252h-258l60 172h264l151 396h164l-151 -396h272l154 396h163l-151 -396h231l-59 -172h-238l-98 -252h262l-78 -172h-250l-178 -465h-164l179 465h-273l-178 -465h-164l176 465h-245zM545 614h270l98 252h-270z" />
<glyph unicode="$" horiz-adv-x="1052" d="M86 975q0 197 208 279q73 28 173 38l-35 240h184l-32 -240q221 -12 329 -75l-18 -197q-209 98 -342 98q-248 0 -248 -119q0 -55 50.5 -87.5t125 -56.5t161.5 -48.5t162 -62.5q175 -90 175 -265q0 -115 -72 -189q-102 -104 -323 -122l30 -234h-182l35 232q-240 12 -361 78 l25 223q143 -119 374.5 -119t231.5 129q0 59 -48 96t-120.5 64t-156.5 51.5t-157 59.5q-169 79 -169 227z" />
<glyph unicode="%" horiz-adv-x="1720" d="M72 1055q0 183 92 289q87 100 217 100q131 0 212 -96q87 -104 87 -275q0 -181 -88 -289q-82 -102 -217 -102t-219 96t-84 277zM186 1057q0 -125 55.5 -197t134.5 -72t134 77t55 208q0 182 -115 245q-34 19 -72 19t-73 -19.5t-61 -55.5q-58 -80 -58 -205zM332 -25 l862 1459h152l-861 -1459h-153zM1040 344q0 183 93 289q88 100 217 100q130 0 212 -96q87 -102 87 -275q0 -182 -88 -289q-84 -102 -218.5 -102t-218.5 96.5t-84 276.5zM1155 346q0 -125 55.5 -196.5t134 -71.5t134 76.5t55.5 207.5q0 120 -56 193q-54 72 -131 72 q-38 0 -73 -19.5t-62 -56.5q-57 -80 -57 -205z" />
<glyph unicode="&#x26;" horiz-adv-x="1251" d="M74 332q0 236 258 418q-154 186 -154 348q0 152 118 250q110 92 269.5 92t232 -71t72.5 -187q0 -244 -335 -453l389 -399q66 84 80 389h165q-8 -319 -133 -514l178 -205h-188l-90 94q-90 -78 -178 -109.5t-209 -31.5t-210 27.5t-149 77.5q-116 99 -116 274zM252 346 q0 -113 77 -183.5t241.5 -70.5t273.5 123l-426 426q-166 -117 -166 -295zM344 1080.5q0 -111.5 113 -249.5l108 84l41 35q109 94 109 195q0 74 -44 113.5t-125 39.5t-141.5 -53t-60.5 -164.5z" />
<glyph unicode="'" horiz-adv-x="372" d="M84 1536h205l-37 -614h-131z" />
<glyph unicode="(" horiz-adv-x="534" d="M86 629q0 441 133 721q45 94 105 186h161q-252 -410 -252 -908.5t252 -906.5h-161q-129 194 -180 391q-58 219 -58 517z" />
<glyph unicode=")" horiz-adv-x="534" d="M49 -279q252 408 252 907t-252 908h162q125 -195 179 -390q59 -213 59 -517q0 -432 -133 -721q-44 -95 -105 -187h-162z" />
<glyph unicode="*" horiz-adv-x="872" d="M68 1307l47 84l303 -177l-27 320h94l-32 -320l305 177l47 -86l-324 -129l232 -236l-68 -66l-209 273l-205 -279l-65 66l221 240z" />
<glyph unicode="+" horiz-adv-x="948" d="M94 487v177h297v262h164v-262h297v-177h-297v-278h-164v278h-297z" />
<glyph unicode="," horiz-adv-x="442" d="M117 -197l71 179l-69 18v176h205v-176l-160 -223z" />
<glyph unicode="-" horiz-adv-x="868" d="M117 487v177h635v-177h-635z" />
<glyph unicode="." horiz-adv-x="417" d="M117 0v176h184v-176h-184z" />
<glyph unicode="/" horiz-adv-x="1089" d="M39 -174l774 1608h205l-774 -1608h-205z" />
<glyph unicode="0" horiz-adv-x="1462" d="M129 692q0 340 177 556q83 102 195.5 158t240.5 56t236.5 -54t187.5 -150q167 -204 167 -527q0 -344 -169 -551q-170 -209 -443 -209q-135 0 -243.5 51.5t-185.5 145.5q-163 199 -163 524zM336 695q0 -273 104.5 -410.5t286.5 -137.5t292.5 146.5t110.5 437.5 q0 258 -111 409q-108 146 -280 146q-173 0 -285 -156q-118 -162 -118 -435z" />
<glyph unicode="1" horiz-adv-x="727" d="M70 1210q135 44 244 155q34 34 57 69h149v-1434h-205v1153q-111 -92 -213 -125z" />
<glyph unicode="2" horiz-adv-x="1073" d="M102 1264q34 66 138 126q124 72 253.5 72t206 -35.5t122.5 -92.5q85 -104 85 -265q0 -216 -235 -588q-84 -133 -205 -305h496v-176h-848q358 508 477 729t119 326t-66.5 165t-183.5 60q-190 0 -334 -190z" />
<glyph unicode="3" horiz-adv-x="1120" d="M82 80l47 180q168 -92 258 -106q39 -7 93 -7t110.5 15.5t97.5 50.5q90 77 90 223q0 198 -178 248q-65 18 -162 18h-149l20 156h76q186 0 264 59.5t78 176.5q0 193 -244 192q-174 0 -276 -84l-35 166q33 33 118 63.5t217 30.5t217 -35.5t133 -90.5q83 -94 83 -242 q0 -86 -41 -157t-145 -142q238 -80 237 -357q0 -214 -153 -344q-70 -61 -165.5 -92t-179 -31t-146 11.5t-117.5 29.5q-117 37 -148 68z" />
<glyph unicode="4" horiz-adv-x="1144" d="M29 389l659 1045h162v-869h174v-176h-174v-389h-205v389h-616zM332 565h313v520z" />
<glyph unicode="5" horiz-adv-x="1107" d="M104 51l48 182q147 -86 297 -86q140 0 240 96q99 95 99 228t-101 194.5t-331 61.5h-174l86 707h652l-19 -177h-477l-41 -356q327 0 475 -102q143 -99 143 -316q0 -221 -165 -371q-74 -67 -174 -104t-178 -37t-133.5 7.5t-106.5 19.5q-111 26 -140 53z" />
<glyph unicode="6" horiz-adv-x="1163" d="M127 492q0 201 62.5 372.5t155.5 297.5t200.5 198t195.5 74l133 -78q-197 -89 -304 -202q-150 -157 -220 -423q94 129 289 129q191 0 311 -108q123 -110 123 -306q0 -201 -137 -336q-141 -139 -356 -139q-107 0 -189 31t-141 94q-123 131 -123 396zM332 412 q0 -130 78 -202q74 -69 190 -69q128 0 205 90q69 81 69 207q0 173 -136 234q-47 22 -111.5 22t-117 -20.5t-91.5 -57.5q-86 -80 -86 -204z" />
<glyph unicode="7" horiz-adv-x="1028" d="M80 1257v177h928l-621 -1434h-205l543 1257h-645z" />
<glyph unicode="8" horiz-adv-x="1247" d="M121 387q0 238 274 383q-190 147 -190 336q0 247 231 326q80 28 193 28t190.5 -25.5t127.5 -69.5q97 -85 97 -228q0 -109 -50 -179q-44 -62 -189 -165q166 -57 242.5 -148.5t76.5 -238.5q0 -175 -132 -300q-145 -135 -385 -135q-124 0 -215 34t-152 91q-119 114 -119 291 zM334 392q0 -245 280 -245q132 0 218 74q86 75 86 183t-81 182.5t-210 105.5q-135 -27 -214 -101.5t-79 -198.5zM383 1105q0 -81 61.5 -142.5t165.5 -100.5q119 35 179.5 103.5t60.5 149.5t-59.5 126t-169.5 45q-111 0 -174.5 -50t-63.5 -131z" />
<glyph unicode="9" horiz-adv-x="1167" d="M92 985q0 207 140 343q65 63 156 98.5t189.5 35.5t179.5 -24.5t143 -83.5q138 -131 138 -408q0 -225 -62.5 -401t-153.5 -297t-194.5 -184.5t-185.5 -63.5l-149 78q209 97 325 216q161 164 193 394q-41 -55 -119 -86t-166 -31q-205 0 -319.5 104.5t-114.5 309.5zM291 995 q0 -174 134 -235q48 -21 114.5 -21t119 20.5t91.5 58.5q84 83 84 208q0 124 -79 198q-74 68 -190 68q-129 0 -205 -90q-69 -83 -69 -207z" />
<glyph unicode=":" horiz-adv-x="417" d="M117 0v176h184v-176h-184zM117 725v176h184v-176h-184z" />
<glyph unicode=";" horiz-adv-x="442" d="M117 -197l71 179l-69 18v176h205v-178l-160 -221zM119 725v176h205v-176h-205z" />
<glyph unicode="&#x3c;" horiz-adv-x="829" d="M68 582l442 422h195l-443 -422l443 -422h-195z" />
<glyph unicode="=" horiz-adv-x="1028" d="M135 328v155h758v-155h-758zM135 651v156h758v-156h-758z" />
<glyph unicode="&#x3e;" horiz-adv-x="827" d="M123 160l442 422l-442 422h194l443 -422l-443 -422h-194z" />
<glyph unicode="?" horiz-adv-x="903" d="M61 1399q39 59 127 98t192.5 39t183.5 -34t134 -89q115 -113 115 -260q0 -134 -123 -293l-104 -133q-126 -162 -123 -262v-55h-121q-6 82 -6 118.5t22.5 91t57.5 104.5t73.5 98t73.5 98q80 116 80 229q0 118 -79 187q-74 65 -183 65q-86 0 -169 -47q-77 -45 -99 -92z M313 0v176h187v-176h-187z" />
<glyph unicode="@" horiz-adv-x="1478" d="M100 348q0 164 61.5 307.5t168 249t246 167t277.5 61.5t233.5 -37t161.5 -104q134 -139 134 -380q0 -136 -21.5 -204t-55 -111t-102.5 -74t-124 -30q-76 0 -75 108q0 49 26.5 149.5t46 174t39.5 151.5q-104 109 -250 109q-94 0 -187 -51.5t-167 -132t-120 -184t-46 -205 t45 -166t150 -64.5q91 0 194 66q112 73 166 171l-6 -63q0 -66 26.5 -118t86.5 -52q93 0 212 83q35 24 60 48q-98 -176 -281 -285q-184 -110 -391 -110q-234 0 -372 140q-136 138 -136 386zM510 359.5q0 68.5 35 143.5t89 131q122 126 226 126t119 -45q-24 -157 -151 -328 q-56 -74 -116.5 -122t-108.5 -48t-70.5 37t-22.5 105.5z" />
<glyph unicode="A" d="M14 0l514 1434h205l514 -1434h-205l-137 387h-549l-137 -387h-205zM418 563h426l-213 598z" />
<glyph unicode="B" horiz-adv-x="1222" d="M164 0v1434h323q287 0 403 -69q138 -81 138 -286q0 -120 -16 -164q-25 -71 -101 -151q133 -51 186.5 -133t53.5 -212t-44 -214t-115 -129q-119 -76 -337 -76h-491zM358 176h201q208 0 272 32t90.5 77t26.5 120t-20.5 122.5t-57.5 77.5q-69 57 -208 57h-304v-486zM358 838 h242q112 0 152.5 29.5t57.5 74.5t17 118t-23.5 111.5t-62.5 58.5q-61 30 -198 30h-185v-422z" />
<glyph unicode="C" d="M80 717q0 331 202 539q200 206 515 206q219 0 397 -84l-20 -180l-117 41q-117 47 -249 47t-225.5 -43t-158.5 -119q-131 -153 -131 -407q0 -252 129 -407q137 -163 379 -163q62 0 119 11l51 10q16 2 55 16l47 15q10 2 53 18l48 16l20 -180q-178 -82 -365.5 -82 t-319.5 53.5t-227 151.5q-202 207 -202 541z" />
<glyph unicode="D" horiz-adv-x="1488" d="M164 0v1434h530q316 0 514 -192q199 -194 199 -525q0 -329 -197 -525q-195 -192 -516 -192h-530zM358 176h336q235 0 370 146q130 143 130 395q0 250 -130 394q-133 146 -370 146h-336v-1081z" />
<glyph unicode="E" horiz-adv-x="1134" d="M164 0v1434h874v-177h-680v-419h541v-176h-541v-486h699v-176h-893z" />
<glyph unicode="F" horiz-adv-x="1071" d="M164 0v1434h874v-177h-680v-419h525v-176h-525v-662h-194z" />
<glyph unicode="G" horiz-adv-x="1376" d="M80 719q0 334 202 539q199 204 517 204q242 0 426 -82l-19 -170q-215 76 -370.5 76t-252 -42t-161.5 -116q-129 -150 -129 -411q0 -404 308 -529q101 -41 242.5 -41t233.5 39v357h-225v176h420v-639q-127 -71 -364 -100q-69 -9 -126 -9q-304 0 -504 207 q-198 206 -198 541z" />
<glyph unicode="H" horiz-adv-x="1527" d="M164 0v1434h194v-592h811v592h195v-1434h-195v657h-811v-657h-194z" />
<glyph unicode="I" horiz-adv-x="522" d="M164 0v1434h194v-1434h-194z" />
<glyph unicode="J" horiz-adv-x="522" d="M-35 -238h8q109 0 151 52q40 52 40 180v1440h194v-1500q0 -286 -340 -286h-32z" />
<glyph unicode="K" horiz-adv-x="1181" d="M164 0v1434h194v-1434h-194zM438 760l531 674h205l-531 -674l531 -760h-205z" />
<glyph unicode="L" horiz-adv-x="1026" d="M164 0v1434h194v-1258h658v-176h-852z" />
<glyph unicode="M" horiz-adv-x="1662" d="M98 0l193 1434h166l377 -711l372 711h168l191 -1434h-205l-135 1083l-389 -743l-398 743l-135 -1083h-205z" />
<glyph unicode="N" horiz-adv-x="1441" d="M164 0v1434h211l706 -1074v1074h197v-1434h-166l-754 1133v-1133h-194z" />
<glyph unicode="O" horiz-adv-x="1572" d="M80 717q0 333 200 541q195 204 506 204q312 0 508 -204q199 -207 199 -543t-198 -540t-509 -204q-312 0 -508 204q-198 205 -198 542zM293 717q0 -253 127 -408q134 -162 366 -162q233 0 368 163q126 153 126 404.5t-128 411.5t-366 160q-232 0 -366 -162 q-127 -154 -127 -407z" />
<glyph unicode="P" horiz-adv-x="1171" d="M164 0v1434h459q236 0 349 -79q150 -105 150 -368q0 -253 -150 -381q-119 -104 -292 -104h-311v-502h-205zM369 676h274q150 0 213.5 79t63.5 224q0 156 -72 217q-76 64 -262 64h-217v-584z" />
<glyph unicode="Q" horiz-adv-x="1572" d="M80 717q0 333 200 541q195 204 506 204q312 0 508 -204q199 -207 199 -541q0 -264 -152 -490l123 -100l-102 -121l-133 111q-205 -145 -443 -146q-312 0 -508 204q-198 205 -198 542zM293 717q0 -254 125 -408q131 -162 368 -162q197 0 310 82l-211 172l102 125l215 -190 q98 154 98 381q0 251 -136 407q-141 162 -378 162q-232 0 -366 -160q-127 -150 -127 -409z" />
<glyph unicode="R" horiz-adv-x="1234" d="M164 0v1434h465q249 0 367 -96q128 -103 128 -324q0 -135 -68.5 -240.5t-193.5 -163.5l334 -610h-209l-317 559h-301v-559h-205zM369 748h309q104 0 171 65q73 71 73 198.5t-74 196t-221 68.5h-258v-528z" />
<glyph unicode="S" horiz-adv-x="1196" d="M82 1049q0 154 108 269q135 144 408 144q260 0 451 -98l-21 -207q-258 129 -412 129q-211 0 -294 -117q-27 -39 -27 -94q0 -90 77 -140t176 -81.5t118.5 -36t37.5 -9.5q44 -12 152 -58l70 -37q54 -28 71 -45l52 -54q47 -49 62 -106t22 -137q0 -162 -97 -259 q-136 -137 -448 -139h-14q-302 0 -470 90l27 228q193 -143 447 -144q239 0 316 124q26 42 26 98.5t-27 98.5t-75 74q-72 49 -269 115l-143 48q-174 57 -249 142t-75 202z" />
<glyph unicode="T" horiz-adv-x="1091" d="M31 1257v177h1030v-177h-418v-1257h-194v1257h-418z" />
<glyph unicode="U" horiz-adv-x="1482" d="M147 608v826h195v-732q0 -249 71 -382q93 -173 328 -173q232 0 330 177q70 126 70 378v732h194v-826q0 -303 -148.5 -470t-445.5 -167t-445.5 167t-148.5 470z" />
<glyph unicode="V" horiz-adv-x="1318" d="M8 1434h205l449 -1211l444 1211h205l-549 -1434h-205z" />
<glyph unicode="W" horiz-adv-x="1988" d="M29 1434h204l318 -1213l358 1184h176l363 -1182l315 1211h205l-420 -1434h-215l-338 1176l-350 -1176h-215z" />
<glyph unicode="X" horiz-adv-x="1226" d="M18 0l482 715l-482 719h226l368 -560l398 560h204l-512 -695l515 -739h-205l-414 586l-375 -586h-205z" />
<glyph unicode="Y" horiz-adv-x="1161" d="M-6 1434h205l381 -596l381 596h204l-483 -772v-662h-203v662z" />
<glyph unicode="Z" horiz-adv-x="1124" d="M18 0l770 1257h-677v177h999l-772 -1258h680v-176h-1000z" />
<glyph unicode="[" horiz-adv-x="669" d="M143 -276v1812h527v-139h-357v-1534h357v-139h-527z" />
<glyph unicode="\" horiz-adv-x="1075" d="M72 1434h190l774 -1608h-190z" />
<glyph unicode="]" horiz-adv-x="669" d="M0 -137h356v1534h-356v139h526v-1812h-526v139z" />
<glyph unicode="^" horiz-adv-x="1046" d="M100 895v217l422 442l422 -442v-217l-422 442z" />
<glyph unicode="_" horiz-adv-x="1159" d="M6 -74h1147v-176h-1147v176z" />
<glyph unicode="`" horiz-adv-x="620" d="M119 1352v147l383 -194v-84z" />
<glyph unicode="a" horiz-adv-x="983" d="M49 257.5q0 116.5 56.5 184.5t143.5 109q155 73 400 78q0 135 -52 183t-175 48t-256 -90l-27 150q135 104 340 104q194 0 274 -108q81 -108 81 -373v-205q0 -119 20 -165t94 -46h19l-29 -147h-14q-121 0 -161 24.5t-59.5 53t-37.5 69.5q-127 -147 -308 -147 q-141 0 -225 80.5t-84 197zM238 281q0 -154 155 -154q74 0 142.5 37t113.5 98v240q-221 -8 -316 -58.5t-95 -162.5z" />
<glyph unicode="b" horiz-adv-x="1136" d="M123 0v1536h184v-641q106 129 311 129q199 0 328 -156q125 -149 125 -366q0 -218 -131 -370t-324 -152q-76 0 -142 28q-119 52 -167 119l-20 -127h-164zM297 502q0 -171 88 -268q82 -91 211 -91q128 0 209 107q78 103 78 252q0 155 -79 255q-82 103 -206 103 q-61 0 -115.5 -23.5t-95.5 -69.5q-90 -101 -90 -265z" />
<glyph unicode="c" horiz-adv-x="929" d="M68 504q0 233 128 374q130 146 369 146q201 0 309 -59l-28 -166q-127 61 -276.5 61t-231.5 -92t-82 -264t82 -267.5t232.5 -95.5t277.5 62l24 -148q-112 -75 -305 -75q-233 0 -369 150q-130 143 -130 374z" />
<glyph unicode="d" horiz-adv-x="1136" d="M66 499.5q0 106.5 32.5 202t93.5 166.5q131 156 332 156t305 -127v639h185v-1536h-164l-21 127q-44 -62 -142 -107q-88 -41 -174 -41t-171 41q-171 83 -242 278q-34 95 -34 201.5zM254 502q0 -153 75 -253q79 -106 208 -106q131 0 218 87q95 95 95 266q0 164 -97 268 q-90 96 -219 96q-63 0 -115 -26.5t-89 -73.5q-76 -97 -76 -258z" />
<glyph unicode="e" horiz-adv-x="1048" d="M63 510q0 221 133 366q138 148 359 148q198 0 313 -112q119 -118 119 -312q0 -57 -8 -98h-727q33 -358 377 -359q154 0 289 60l24 -146q-177 -78 -319 -78l-1 1q-142 0 -244 40.5t-172 111.5q-143 147 -143 378zM268 629h529q0 111 -61.5 171t-184.5 60q-223 0 -283 -231 z" />
<glyph unicode="f" horiz-adv-x="677" d="M20 860l25 144h150v253q0 125 60 202t182 77t200 -27l-29 -155q-59 18 -108.5 18t-69.5 -7t-32 -33q-19 -43 -19 -206v-122h270v-144h-270v-860h-184v860h-175z" />
<glyph unicode="g" horiz-adv-x="1019" d="M53 -209q0 160 178 225q-102 49 -102 127q0 35 27.5 77t91.5 73q-174 125 -174 328q0 175 107 287q110 116 302 116q135 0 256 -74q106 57 244 58h16l-22 -123h-47q-63 0 -119 -15q92 -111 92 -239q0 -163 -109 -279q-115 -121 -296 -121q-80 0 -144 19 q-49 -29 -49 -54.5t11.5 -39t45.5 -23.5q43 -13 182.5 -38t211 -43.5t130.5 -49.5q133 -71 140 -199q0 -131 -134 -221q-142 -94 -371 -94q-118 0 -206 24.5t-146 66.5q-116 84 -116 212zM229 -214.5q0 -62.5 80 -108.5t224 -46t225.5 48.5t81.5 111.5q-1 107 -269 156 q-35 0 -182 24q-70 -20 -115 -71.5t-45 -114zM250 624.5q0 -114.5 66.5 -183t175 -68.5t172 73.5t63.5 188.5t-65.5 178.5t-177.5 63.5t-173 -69t-61 -183.5z" />
<glyph unicode="h" horiz-adv-x="1110" d="M123 0v1536h186v-641q100 129 291 129q395 0 395 -487v-537h-184v537q0 178 -53 250.5t-187 72.5q-180 0 -262 -131v-729h-186z" />
<glyph unicode="i" horiz-adv-x="434" d="M125 0v1004h184v-1004h-184zM125 1229v205h184v-205h-184z" />
<glyph unicode="j" horiz-adv-x="434" d="M-25 -354q91 8 119 46q31 39 31 158v1154h184v-1223q0 -226 -252 -266l-61 -11zM125 1229v205h184v-205h-184z" />
<glyph unicode="k" horiz-adv-x="917" d="M123 0v1536h184v-985l369 453h225l-414 -463l424 -541h-225l-379 510v-510h-184z" />
<glyph unicode="l" horiz-adv-x="483" d="M123 221v1315h184v-1208q0 -131 21.5 -159t53.5 -35t87 -7l-27 -147h-59q-135 0 -197.5 68.5t-62.5 172.5z" />
<glyph unicode="m" horiz-adv-x="1796" d="M125 0v1004h143l21 -107q82 74 149.5 100.5t151.5 26.5q229 0 340 -201q104 201 366 201q385 0 385 -432v-592h-184v590q0 141 -55.5 205.5t-179.5 64.5q-266 0 -267 -278v-582h-184v553q0 172 -60.5 239.5t-175.5 67.5q-193 0 -266 -131v-729h-184z" />
<glyph unicode="n" horiz-adv-x="1144" d="M125 0v1004h143l21 -107q143 127 332 127q410 0 409 -471v-553h-184v553q0 162 -60.5 234.5t-201.5 72.5q-201 0 -275 -131v-729h-184z" />
<glyph unicode="o" horiz-adv-x="1126" d="M66 502q0 229 134 372q138 150 363 150q226 0 363 -150q135 -148 135 -372.5t-134 -373t-364 -148.5q-228 0 -365 149q-132 143 -132 373zM254 502q0 -172 81 -265.5t229 -93.5q148 1 228 97q80 97 81 266q0 167 -81 260q-81 94 -229 94q-147 0 -228 -93t-81 -265z" />
<glyph unicode="p" horiz-adv-x="1140" d="M125 -496v1500h143l21 -144q70 84 145.5 124t185 40t191.5 -42t141 -114q121 -151 121 -366q0 -232 -115 -375q-119 -147 -333 -147q-130 0 -250 84q-39 28 -66 63v-623h-184zM299 502q0 -170 91 -268q84 -91 214 -91q124 0 205 103q76 97 76 256q0 161 -76 258 q-79 100 -203 100q-61 0 -116.5 -24.5t-97.5 -70.5q-93 -102 -93 -263z" />
<glyph unicode="q" horiz-adv-x="1140" d="M68 502q0 218 122 366q127 156 324 156q117 0 192.5 -40t145.5 -124l20 144h144v-1500h-185v623q-48 -64 -145 -107q-87 -40 -170 -40q-213 0 -334 147q-114 139 -114 375zM256 502q0 -241 164 -331q51 -28 114.5 -28t120 23.5t97.5 69.5q90 99 90 266q0 161 -93 263 q-87 95 -215 95q-63 0 -114 -26.5t-88 -73.5q-76 -97 -76 -258z" />
<glyph unicode="r" horiz-adv-x="657" d="M125 0v1004h151l23 -166q94 106 171 154t169 48h16l-41 -202h-63q-93 0 -191 -82q-26 -23 -38 -47v-709h-197z" />
<glyph unicode="s" horiz-adv-x="847" d="M66 68l22 178q41 -37 126 -70t187 -33q201 0 201 125q0 113 -201 166q-143 33 -199.5 75t-84 91t-31.5 123q0 129 92 215t285 86q137 0 272 -66l-22 -167q-106 88 -246 88q-195 0 -195 -136q0 -63 48 -95q45 -30 137 -56t142 -48t93 -56q101 -82 101 -209 q0 -196 -193 -271q-75 -28 -190 -28q-219 0 -344 88z" />
<glyph unicode="t" horiz-adv-x="690" d="M37 860l16 144h156v247l184 19v-266h264v-144h-264v-528q0 -72 4 -113t23.5 -61.5t62.5 -25.5t121 -5h47l-14 -147h-166q-133 0 -197.5 69.5t-64.5 169.5v641h-172z" />
<glyph unicode="u" horiz-adv-x="1073" d="M115 420v584h184v-533q0 -328 233 -328q160 0 232 115v746h184v-1004h-164l-20 111q-94 -131 -279 -131q-371 0 -370 440z" />
<glyph unicode="v" horiz-adv-x="1007" d="M18 1004h205l281 -801l278 801h207l-381 -1004h-207z" />
<glyph unicode="w" horiz-adv-x="1484" d="M25 1004h217l192 -801l213 770h191l215 -770l192 801h217l-303 -1004h-207l-209 741l-211 -741h-206z" />
<glyph unicode="x" horiz-adv-x="970" d="M23 0l350 500l-342 504h207l251 -398l232 398h215l-330 -488l342 -516h-207l-254 395l-258 -395h-206z" />
<glyph unicode="y" horiz-adv-x="1034" d="M14 1004h205l313 -746l283 746h205l-614 -1500h-205l231 541z" />
<glyph unicode="z" horiz-adv-x="964" d="M45 0l535 860h-514v144h847l-534 -861h524v-143h-858z" />
<glyph unicode="{" horiz-adv-x="612" d="M39 629q78 53 112.5 123.5t34.5 181.5l-16 295q0 145 99.5 222t338.5 85v-141q-200 -4 -252 -84q-26 -41 -31.5 -106.5t-5.5 -160.5l7 -176q0 -78 -26 -116q-45 -67 -144 -123q103 -56 138 -105q32 -44 32 -116l-7 -193q0 -111 8.5 -176.5t38 -102t87 -51t155.5 -20.5 v-141q-236 8 -337 83t-101 222l16 297q0 111 -32.5 181.5t-114.5 121.5z" />
<glyph unicode="|" horiz-adv-x="468" d="M143 -428v1964h183v-1964h-183z" />
<glyph unicode="}" horiz-adv-x="612" d="M4 -135q111 2 170 22.5t85 63.5t30 108.5t4 155.5l-6 193q0 73 25 107q46 61 145 114q-103 60 -137 111q-33 49 -33 128l6 176q0 111 -8.5 176.5t-38 102.5t-87 51.5t-155.5 20.5v141q240 -8 339 -85t99 -222l-16 -295q0 -111 35 -181.5t112 -123.5q-82 -51 -114.5 -122 t-32.5 -181l16 -297q0 -147 -101 -222t-337 -83v141z" />
<glyph unicode="~" horiz-adv-x="931" d="M111 389q23 87 85 139q56 45 126 45q27 0 63.5 -15t83.5 -34.5t80 -35t59 -15.5q86 0 142 105l69 -19q-23 -88 -82 -140t-137 -52q-25 0 -59.5 16t-79.5 35.5t-78 36t-53 16.5q-109 0 -146 -100z" />
<glyph unicode="&#xa1;" horiz-adv-x="458" d="M102 -512l62 1126h131l61 -1126h-254zM143 848v176h172v-176h-172z" />
<glyph unicode="&#xa2;" horiz-adv-x="976" d="M70 709q0 209 112 353q119 152 322 179l-35 291h184l-32 -287q160 -11 251 -65l-16 -160q-124 67 -231 67t-169.5 -29.5t-104.5 -80.5q-85 -103 -85 -268.5t90 -268t232.5 -102.5t267.5 65l16 -159q-35 -23 -84 -41.5t-165 -24.5l30 -241h-184l35 245q-190 24 -312 166 q-122 144 -122 361z" />
<glyph unicode="&#xa3;" horiz-adv-x="1024" d="M70 0q104 147 139 253q56 169 78 380h-195l29 176h178v235q0 191 65 290q84 128 293 128q141 0 219 -50t107 -126l-131 -121q-57 115 -176 115q-117 0 -154 -68q-26 -49 -26 -213v-190h393l-31 -176h-375q-14 -178 -25 -234q-18 -86 -73 -223h535v-176h-850z" />
<glyph unicode="&#xa4;" horiz-adv-x="1282" d="M125 711.5q0 226.5 164 396.5l-160 209l57 49l160 -211q156 78 298 78t290 -80l164 213l57 -49l-160 -211q162 -168 162 -391t-164 -400l162 -206l-59 -50l-162 211q-143 -78 -294 -77.5t-292 77.5l-162 -211l-57 50l158 208q-162 168 -162 394.5zM309 713 q0 -176 87 -284q89 -110 245 -110q155 0 245 113q87 110 87 282t-87 282t-245 110q-156 0 -245 -112q-87 -108 -87 -281z" />
<glyph unicode="&#xa5;" horiz-adv-x="1380" d="M61 1434h191l440 -629l441 629h190l-530 -787h362l-43 -110h-321v-127h364l-43 -111h-321v-299h-197v299h-365l43 111h322v127h-365l43 110h320z" />
<glyph unicode="&#xa6;" horiz-adv-x="475" d="M147 334h181v-764h-181v764zM147 631v905h181v-905h-181z" />
<glyph unicode="&#xa7;" horiz-adv-x="933" d="M76 676q0 238 223 305q-80 57 -105.5 109.5t-25.5 118t19.5 127t61.5 105.5q91 95 262 95t296 -82l-27 -129q-139 88 -248.5 88t-163 -51t-53.5 -119.5t40 -106.5t100.5 -65t131 -52.5t131.5 -66.5q140 -95 140 -274q0 -203 -213 -293q78 -60 97 -101q24 -53 24 -128.5 t-20.5 -133t-62.5 -100.5q-92 -94 -261 -94q-88 0 -170 22.5t-123 57.5l27 129q139 -84 252 -84q227 0 227 170q0 72 -41 111.5t-103.5 64.5t-135 46.5t-135 59t-103.5 100t-41 171.5zM215 700q0 -166 332 -251q74 20 117 79.5t43 135.5q0 165 -289 233q-126 -9 -182 -109 q-21 -36 -21 -88z" />
<glyph unicode="&#xa8;" horiz-adv-x="864" d="M178 1229v205h144v-205h-144zM543 1229v205h143v-205h-143z" />
<glyph unicode="&#xa9;" horiz-adv-x="1474" d="M100 749q0 151 47.5 274.5t132.5 211.5q178 184 457 184q282 0 457 -185q178 -189 178 -486q0 -296 -178 -485q-176 -187 -457 -187q-282 0 -459 186q-178 188 -178 487zM207 748q0 -266 135 -419q142 -161 395 -161q251 0 393 163q136 155 136 417q0 258 -136 416 q-141 163 -393 163q-250 0 -393 -161q-137 -154 -137 -418zM432 743q0 157 90 249q91 93 234 93q98 0 184 -38l-14 -123q-92 39 -177 39t-132.5 -60.5t-47.5 -159.5q0 -98 47.5 -158.5t131.5 -60.5t178 41l14 -121q-78 -41 -167 -41t-148.5 25t-102.5 69q-90 92 -90 246z " />
<glyph unicode="&#xaa;" horiz-adv-x="714" d="M68 1052.5q0 69.5 35.5 108.5t88.5 63q94 41 220 46q-4 86 -109 86q-66 0 -170 -41l-12 123q111 47 223 47q223 0 223 -221v-164q0 -61 9.5 -73.5t44.5 -12.5h20l-14 -125h-56q-98 0 -137 63q-63 -63 -188 -63q-76 0 -127 47t-51 116.5zM229 1069q0 -66 82 -65 q56 -1 103 34v129q-72 -2 -128.5 -27.5t-56.5 -70.5z" />
<glyph unicode="&#xab;" horiz-adv-x="1153" d="M31 582l301 422h205l-301 -422l301 -422h-205zM563 582l301 422h207l-303 -422l303 -422h-207z" />
<glyph unicode="&#xac;" horiz-adv-x="1220" d="M135 709v122h942v-522h-112v400h-830z" />
<glyph unicode="&#xad;" horiz-adv-x="868" d="M117 471v193h635v-193h-635z" />
<glyph unicode="&#xae;" horiz-adv-x="1474" d="M100 749q0 151 47.5 274.5t132.5 211.5q178 184 457 184q282 0 457 -185q178 -189 178 -486q0 -296 -178 -485q-176 -187 -457 -187q-282 0 -459 186q-178 188 -178 487zM205 748q0 -265 135 -420q141 -162 397 -162t395 162q136 160 136 420q0 263 -138 418 q-143 163 -393 163q-251 0 -395 -163q-137 -154 -137 -418zM500 430v657h241q111 0 168.5 -46t57.5 -154t-111 -182l145 -275h-129l-133 240h-112v-240h-127zM627 784h82q125 0 125 103q0 49 -26.5 74.5t-94.5 25.5h-86v-203z" />
<glyph unicode="&#xb0;" horiz-adv-x="681" d="M70 1266q0 191 158 258q51 22 112 22q125 0 198.5 -81t74 -200.5t-73.5 -198.5t-201 -79t-197.5 79t-70.5 200zM160 1266q0 -98 50 -162t140 -64q79 0 126 71q42 62 42 131t-11 110t-33.5 72.5t-55.5 50t-77 18.5t-77 -18.5t-56 -48.5q-48 -62 -48 -160z" />
<glyph unicode="&#xb1;" horiz-adv-x="1019" d="M131 86v137h758v-137h-758zM131 670v137h313v283h131v-283h314v-137h-314v-295h-131v295h-313z" />
<glyph unicode="&#xb2;" horiz-adv-x="622" d="M51 655q216 291 268 385.5t60 125t8 65t-30.5 63.5t-86.5 29q-104 0 -190 -121l-19 133q23 39 85.5 75t139 36t120 -16.5t70.5 -45.5q54 -55 54 -147q0 -139 -217 -438h246v-144h-508z" />
<glyph unicode="&#xb3;" horiz-adv-x="634" d="M39 700l37 136q66 -53 180 -54q160 0 160 107q0 61 -32 96t-120 35h-106l12 113h55q158 0 158 98q0 90 -123 90q-100 0 -145 -35l-23 109q53 51 187 51t201 -66q57 -54 57 -152t-80 -143q111 -66 110 -190q0 -118 -91 -189q-87 -67 -201 -67q-48 0 -83.5 6t-66.5 15 q-72 23 -86 40z" />
<glyph unicode="&#xb4;" horiz-adv-x="620" d="M119 1221v84l383 194v-147z" />
<glyph unicode="&#xb5;" horiz-adv-x="1210" d="M150 -496v1500h182v-529q0 -172 54 -253t196 -81q78 0 129 27t108 92v744h178v-656q0 -117 19.5 -169t77.5 -52h45l-33 -147h-53q-162 0 -219 149q-68 -78 -126.5 -115t-136.5 -37t-126 15.5t-115 62.5v-551h-180z" />
<glyph unicode="&#xb6;" horiz-adv-x="1273" d="M68 971q0 195 152 323q165 140 437 140h531v-138h-154v-1296h-98v1296h-207v-1296h-84v498q-273 15 -431 154q-146 130 -146 319z" />
<glyph unicode="&#xb7;" horiz-adv-x="487" d="M117 436v266h254v-266h-254z" />
<glyph unicode="&#xb8;" horiz-adv-x="620" d="M295 -393l139 270l135 12l-180 -272z" />
<glyph unicode="&#xb9;" horiz-adv-x="442" d="M47 1309q37 4 74 33q69 52 80 88h116v-775h-153v566q-66 -29 -105 -35z" />
<glyph unicode="&#xba;" horiz-adv-x="757" d="M68 1188q0 126 82 210q86 87 229 87q138 0 227 -87q84 -82 84 -208.5t-85 -213.5t-226 -87q-139 0 -226 87q-85 85 -85 212zM225 1187q0 -77 41 -126t113 -49t112.5 49t41 126t-40.5 127t-113 50t-113 -50t-41 -127z" />
<glyph unicode="&#xbb;" horiz-adv-x="1153" d="M84 160l303 422l-303 422h207l301 -422l-301 -422h-207zM616 160l302 422l-302 422h205l301 -422l-301 -422h-205z" />
<glyph unicode="&#xbc;" horiz-adv-x="1468" d="M80 1309q37 4 74 33q69 52 80 88h116v-775h-153v566q-66 -29 -105 -35zM125 -174l774 1608h205l-774 -1608h-205zM788 213l383 564h127v-447h101v-117h-101v-211h-151v211h-359zM995 330h152v225z" />
<glyph unicode="&#xbd;" horiz-adv-x="1492" d="M74 1309q37 4 74 33q69 52 80 88h116v-775h-153v566q-66 -29 -105 -35zM119 -174l774 1608h205l-774 -1608h-205zM913 0q216 291 268 385.5t60 125t8 65t-30.5 63.5t-86.5 29q-104 0 -190 -121l-19 133q23 39 85.5 75t139 36t120 -16.5t70.5 -45.5q54 -55 54 -147 q0 -139 -217 -438h246v-144h-508z" />
<glyph unicode="&#xbe;" horiz-adv-x="1812" d="M66 700l37 136q66 -53 180 -54q160 0 160 107q0 61 -32 96t-120 35h-106l12 113h55q158 0 158 98q0 90 -123 90q-100 0 -145 -35l-23 109q53 51 187 51t201 -66q57 -54 57 -152t-80 -143q111 -66 110 -190q0 -118 -91 -189q-87 -67 -201 -67q-48 0 -83.5 6t-66.5 15 q-72 23 -86 40zM473 -174l774 1608h205l-774 -1608h-205zM1132 213l383 564h127v-447h101v-117h-101v-211h-151v211h-359zM1339 330h152v225z" />
<glyph unicode="&#xbf;" horiz-adv-x="919" d="M127 -129q0 134 123 293l102 133q128 164 125 262v55h121q6 -84 6 -119.5t-22.5 -90t-57.5 -104.5t-73.5 -98t-73.5 -98q-80 -116 -80 -229q0 -118 79 -187q74 -65 183 -65q82 0 168 47q78 44 100 92l52 -137q-39 -59 -127 -98t-191.5 -39t-182.5 34t-134 87 q-117 111 -117 262zM440 848v176h187v-176h-187z" />
<glyph unicode="&#xc0;" d="M14 0l514 1434h205l514 -1434h-205l-137 387h-549l-137 -387h-205zM418 563h426l-213 598zM441 1780v147l383 -194v-84z" />
<glyph unicode="&#xc1;" d="M14 0l514 1434h205l514 -1434h-205l-137 387h-549l-137 -387h-205zM418 563h426l-213 598zM441 1649v84l383 194v-147z" />
<glyph unicode="&#xc2;" d="M14 0l514 1434h205l514 -1434h-205l-137 387h-549l-137 -387h-205zM332 1663v74l301 217l301 -217v-74l-301 168zM418 563h426l-213 598z" />
<glyph unicode="&#xc3;" d="M14 0l514 1434h205l514 -1434h-205l-137 387h-549l-137 -387h-205zM278 1677q36 134 148 173q33 12 61.5 12t65.5 -15.5t84 -35t83 -35t56 -15.5q86 0 141 105l70 -19q-23 -88 -82 -140t-137 -52q-25 0 -61.5 16.5t-78.5 35.5t-75 35.5t-55 16.5q-109 0 -146 -100z M418 563h426l-213 598z" />
<glyph unicode="&#xc4;" d="M14 0l514 1434h205l514 -1434h-205l-137 387h-549l-137 -387h-205zM379 1657v205h144v-205h-144zM418 563h426l-213 598zM744 1657v205h143v-205h-143z" />
<glyph unicode="&#xc5;" d="M14 0l514 1434h205l514 -1434h-205l-137 387h-549l-137 -387h-205zM418 563h426l-213 598zM420 1792q0 78 59.5 130t165.5 52q142 0 187 -116q12 -33 12 -68q0 -70 -49 -126t-148 -56h-14q-100 0 -156.5 53t-56.5 131zM510 1789q0 -54 37 -88t86 -34t86 34t37 88t-36 88 t-87 34t-87 -34t-36 -88z" />
<glyph unicode="&#xc6;" horiz-adv-x="1771" d="M-14 0l700 1434h989v-179h-639v-417h494v-176h-494v-486h660v-176h-893v369h-438l-189 -369h-190zM453 557h350v694z" />
<glyph unicode="&#xc7;" d="M80 717q0 331 202 539q200 206 515 206q219 0 397 -84l-20 -180l-117 41q-117 47 -249 47t-225.5 -43t-158.5 -119q-131 -153 -131 -407q0 -252 129 -407q137 -163 379 -163q62 0 119 11l51 10q16 2 55 16l47 15q10 2 53 18l48 16l20 -180q-178 -82 -365.5 -82 t-319.5 53.5t-227 151.5q-202 207 -202 541zM492 -393l139 270l135 12l-180 -272z" />
<glyph unicode="&#xc8;" horiz-adv-x="1134" d="M164 0v1434h874v-177h-680v-419h541v-176h-541v-486h699v-176h-893zM377 1780v147l383 -194v-84z" />
<glyph unicode="&#xc9;" horiz-adv-x="1134" d="M164 0v1434h874v-177h-680v-419h541v-176h-541v-486h699v-176h-893zM375 1649v84l383 194v-147z" />
<glyph unicode="&#xca;" horiz-adv-x="1134" d="M164 0v1434h874v-177h-680v-419h541v-176h-541v-486h699v-176h-893zM265 1663v74l301 217l301 -217v-74l-301 168z" />
<glyph unicode="&#xcb;" horiz-adv-x="1134" d="M164 0v1434h874v-177h-680v-419h541v-176h-541v-486h699v-176h-893zM311 1657v205h144v-205h-144zM676 1657v205h143v-205h-143z" />
<glyph unicode="&#xcc;" horiz-adv-x="522" d="M72 1780v147l383 -194v-84zM164 0v1434h194v-1434h-194z" />
<glyph unicode="&#xcd;" horiz-adv-x="522" d="M74 1649v84l383 194v-147zM164 0v1434h194v-1434h-194z" />
<glyph unicode="&#xce;" horiz-adv-x="522" d="M-32 1663v74l301 217l301 -217v-74l-301 168zM164 0v1434h194v-1434h-194z" />
<glyph unicode="&#xcf;" horiz-adv-x="522" d="M10 1657v205h144v-205h-144zM164 0v1434h194v-1434h-194zM375 1657v205h143v-205h-143z" />
<glyph unicode="&#xd0;" horiz-adv-x="1488" d="M-23 641v131h199v662h524q312 0 510 -193q197 -191 197 -524q0 -327 -195 -523q-191 -194 -512 -194h-524v641h-199zM360 178h340q242 0 370 143.5t128 395.5t-128 395q-129 145 -370 145h-340v-485h273v-131h-273v-463z" />
<glyph unicode="&#xd1;" horiz-adv-x="1441" d="M164 0v1434h211l706 -1074v1074h197v-1434h-166l-754 1133v-1133h-194zM366 1677q36 134 148 173q33 12 61.5 12t65.5 -15.5t84 -35t83 -35t56 -15.5q86 0 141 105l70 -19q-23 -88 -82 -140t-137 -52q-25 0 -61.5 16.5t-78.5 35.5t-75 35.5t-55 16.5q-109 0 -146 -100z " />
<glyph unicode="&#xd2;" horiz-adv-x="1572" d="M80 717q0 333 200 541q195 204 506 204q312 0 508 -204q199 -207 199 -543t-198 -540t-509 -204q-312 0 -508 204q-198 205 -198 542zM293 717q0 -253 127 -408q134 -162 366 -162q233 0 368 163q126 153 126 404.5t-128 411.5t-366 160q-232 0 -366 -162 q-127 -154 -127 -407zM596 1780v147l383 -194v-84z" />
<glyph unicode="&#xd3;" horiz-adv-x="1572" d="M80 717q0 333 200 541q195 204 506 204q312 0 508 -204q199 -207 199 -543t-198 -540t-509 -204q-312 0 -508 204q-198 205 -198 542zM293 717q0 -253 127 -408q134 -162 366 -162q233 0 368 163q126 153 126 404.5t-128 411.5t-366 160q-232 0 -366 -162 q-127 -154 -127 -407zM594 1649v84l383 194v-147z" />
<glyph unicode="&#xd4;" horiz-adv-x="1572" d="M80 717q0 333 200 541q195 204 506 204q312 0 508 -204q199 -207 199 -543t-198 -540t-509 -204q-312 0 -508 204q-198 205 -198 542zM293 717q0 -253 127 -408q134 -162 366 -162q233 0 368 163q126 153 126 404.5t-128 411.5t-366 160q-232 0 -366 -162 q-127 -154 -127 -407zM486 1663v74l301 217l301 -217v-74l-301 168z" />
<glyph unicode="&#xd5;" horiz-adv-x="1572" d="M80 717q0 333 200 541q195 204 506 204q312 0 508 -204q199 -207 199 -543t-198 -540t-509 -204q-312 0 -508 204q-198 205 -198 542zM293 717q0 -253 127 -408q134 -162 366 -162q233 0 368 163q126 153 126 404.5t-128 411.5t-366 160q-232 0 -366 -162 q-127 -154 -127 -407zM432 1677q36 134 148 173q33 12 61.5 12t65.5 -15.5t84 -35t83 -35t56 -15.5q86 0 141 105l70 -19q-23 -88 -82 -140t-137 -52q-25 0 -61.5 16.5t-78.5 35.5t-75 35.5t-55 16.5q-109 0 -146 -100z" />
<glyph unicode="&#xd6;" horiz-adv-x="1572" d="M80 717q0 333 200 541q195 204 506 204q312 0 508 -204q199 -207 199 -543t-198 -540t-509 -204q-312 0 -508 204q-198 205 -198 542zM293 717q0 -253 127 -408q134 -162 366 -162q233 0 368 163q126 153 126 404.5t-128 411.5t-366 160q-232 0 -366 -162 q-127 -154 -127 -407zM532 1657v205h144v-205h-144zM897 1657v205h143v-205h-143z" />
<glyph unicode="&#xd7;" horiz-adv-x="899" d="M125 317l252 250l-252 250l74 74l250 -252l251 252l74 -74l-254 -250l254 -250l-74 -73l-251 252l-250 -252z" />
<glyph unicode="&#xd8;" horiz-adv-x="1572" d="M80 717q0 333 200 541q195 204 506 204q176 0 353 -86l63 90h189l-125 -182q227 -227 227 -569q0 -331 -197 -536q-197 -204 -527 -204q-171 0 -345 88l-86 -124h-191l150 215q-217 231 -217 563zM301 715q0 -201 113 -396l616 904q-135 57 -249 57t-204 -42t-151 -118 q-125 -156 -125 -405zM532 215q141 -59 257 -59t207 42t152 118q124 151 124 407t-119 399z" />
<glyph unicode="&#xd9;" horiz-adv-x="1486" d="M147 608v826h195v-732q0 -249 71 -382q93 -173 328 -173q232 0 330 177q70 126 70 378v732h194v-826q0 -303 -148.5 -470t-445.5 -167t-445.5 167t-148.5 470zM551 1780v147l383 -194v-84z" />
<glyph unicode="&#xda;" horiz-adv-x="1486" d="M147 608v826h195v-732q0 -249 71 -382q93 -173 328 -173q232 0 330 177q70 126 70 378v732h194v-826q0 -303 -148.5 -470t-445.5 -167t-445.5 167t-148.5 470zM551 1649v84l383 194v-147z" />
<glyph unicode="&#xdb;" horiz-adv-x="1486" d="M147 608v826h195v-732q0 -249 71 -382q93 -173 328 -173q232 0 330 177q70 126 70 378v732h194v-826q0 -303 -148.5 -470t-445.5 -167t-445.5 167t-148.5 470zM441 1663v74l301 217l301 -217v-74l-301 168z" />
<glyph unicode="&#xdc;" horiz-adv-x="1486" d="M147 608v826h195v-732q0 -249 71 -382q93 -173 328 -173q232 0 330 177q70 126 70 378v732h194v-826q0 -303 -148.5 -470t-445.5 -167t-445.5 167t-148.5 470zM489 1657v205h144v-205h-144zM854 1657v205h143v-205h-143z" />
<glyph unicode="&#xdd;" horiz-adv-x="1161" d="M-6 1434h205l381 -596l381 596h204l-483 -772v-662h-203v662zM414 1649v84l383 194v-147z" />
<glyph unicode="&#xde;" horiz-adv-x="1167" d="M164 0v1434h205v-246h254q236 0 349 -79q150 -105 150 -368q0 -253 -150 -381q-119 -104 -292 -104h-311v-256h-205zM369 430h274q150 0 213.5 79t63.5 224q0 157 -72 217q-76 64 -262 64h-217v-584z" />
<glyph unicode="&#xdf;" horiz-adv-x="1140" d="M33 860l24 144h150v178q0 166 119 262q113 92 286 92q161 0 266 -77q119 -88 119 -259q0 -186 -169 -370q-31 -35 -31 -53.5t24.5 -42t61.5 -53.5t80 -69t79 -87q86 -112 86 -215t-38.5 -162.5t-102 -96.5t-146.5 -54t-140 -17t-132 6v157q201 0 260.5 16.5t85 46.5 t25.5 86t-25.5 104t-64.5 90t-84 78t-84 70t-64.5 64.5t-25.5 64.5t33.5 77t75.5 95q110 136 110 261q0 96 -61 142q-46 34 -149.5 34t-156.5 -52t-53 -198v-1401h-184v1139h-174z" />
<glyph unicode="&#xe0;" horiz-adv-x="983" d="M49 257.5q0 116.5 56.5 184.5t143.5 109q155 73 400 78q0 135 -52 183t-175 48t-256 -90l-27 150q135 104 340 104q194 0 274 -108q81 -108 81 -373v-205q0 -119 20 -165t94 -46h19l-29 -147h-14q-121 0 -161 24.5t-59.5 53t-37.5 69.5q-127 -147 -308 -147 q-141 0 -225 80.5t-84 197zM238 281q0 -154 155 -154q74 0 142.5 37t113.5 98v240q-221 -8 -316 -58.5t-95 -162.5zM301 1352v147l383 -194v-84z" />
<glyph unicode="&#xe1;" horiz-adv-x="983" d="M49 257.5q0 116.5 56.5 184.5t143.5 109q155 73 400 78q0 135 -52 183t-175 48t-256 -90l-27 150q135 104 340 104q194 0 274 -108q81 -108 81 -373v-205q0 -119 20 -165t94 -46h19l-29 -147h-14q-121 0 -161 24.5t-59.5 53t-37.5 69.5q-127 -147 -308 -147 q-141 0 -225 80.5t-84 197zM238 281q0 -154 155 -154q74 0 142.5 37t113.5 98v240q-221 -8 -316 -58.5t-95 -162.5zM299 1221v84l383 194v-147z" />
<glyph unicode="&#xe2;" horiz-adv-x="983" d="M49 257.5q0 116.5 56.5 184.5t143.5 109q155 73 400 78q0 135 -52 183t-175 48t-256 -90l-27 150q135 104 340 104q194 0 274 -108q81 -108 81 -373v-205q0 -119 20 -165t94 -46h19l-29 -147h-14q-121 0 -161 24.5t-59.5 53t-37.5 69.5q-127 -147 -308 -147 q-141 0 -225 80.5t-84 197zM191 1235v74l301 217l301 -217v-74l-301 168zM238 281q0 -154 155 -154q74 0 142.5 37t113.5 98v240q-221 -8 -316 -58.5t-95 -162.5z" />
<glyph unicode="&#xe3;" horiz-adv-x="983" d="M49 257.5q0 116.5 56.5 184.5t143.5 109q155 73 400 78q0 135 -52 183t-175 48t-256 -90l-27 150q135 104 340 104q194 0 274 -108q81 -108 81 -373v-205q0 -119 20 -165t94 -46h19l-29 -147h-14q-121 0 -161 24.5t-59.5 53t-37.5 69.5q-127 -147 -308 -147 q-141 0 -225 80.5t-84 197zM131 1249q36 134 148 173q33 12 61.5 12t65.5 -15.5t84 -35t83 -35t56 -15.5q86 0 141 105l70 -19q-23 -88 -82 -140t-137 -52q-25 0 -61.5 16.5t-78.5 35.5t-75 35.5t-55 16.5q-109 0 -146 -100zM238 281q0 -154 155 -154q74 0 142.5 37 t113.5 98v240q-221 -8 -316 -58.5t-95 -162.5z" />
<glyph unicode="&#xe4;" horiz-adv-x="983" d="M49 257.5q0 116.5 56.5 184.5t143.5 109q155 73 400 78q0 135 -52 183t-175 48t-256 -90l-27 150q135 104 340 104q194 0 274 -108q81 -108 81 -373v-205q0 -119 20 -165t94 -46h19l-29 -147h-14q-121 0 -161 24.5t-59.5 53t-37.5 69.5q-127 -147 -308 -147 q-141 0 -225 80.5t-84 197zM237 1229v205h144v-205h-144zM238 281q0 -154 155 -154q74 0 142.5 37t113.5 98v240q-221 -8 -316 -58.5t-95 -162.5zM602 1229v205h143v-205h-143z" />
<glyph unicode="&#xe5;" horiz-adv-x="983" d="M49 257.5q0 116.5 56.5 184.5t143.5 109q155 73 400 78q0 135 -52 183t-175 48t-256 -90l-27 150q135 104 340 104q194 0 274 -108q81 -108 81 -373v-205q0 -119 20 -165t94 -46h19l-29 -147h-14q-121 0 -161 24.5t-59.5 53t-37.5 69.5q-127 -147 -308 -147 q-141 0 -225 80.5t-84 197zM238 281q0 -154 155 -154q74 0 142.5 37t113.5 98v240q-221 -8 -316 -58.5t-95 -162.5zM281 1364q0 78 59.5 130t165.5 52q142 0 187 -116q12 -33 12 -68q0 -70 -49 -126t-148 -56h-14q-100 0 -156.5 53t-56.5 131zM371 1361q0 -54 37 -88t86 -34 t86 34t37 88t-36 88t-87 34t-87 -34t-36 -88z" />
<glyph unicode="&#xe6;" horiz-adv-x="1634" d="M45 242q0 356 617 387q-18 125 -72.5 178t-166.5 53t-253 -59l-16 143q172 80 319 80q102 0 171 -39t105.5 -86t49.5 -121q38 121 146 186q98 60 237 60q180 0 285.5 -106.5t105.5 -303.5q0 -46 -8 -112h-688q0 -184 92 -279.5t245 -95.5q72 0 111 13q68 21 164 63 l35 -142q-178 -82 -334 -81q-303 0 -412 231q-53 -117 -165.5 -178.5t-263.5 -61.5t-227.5 71t-76.5 200zM233 258q0 -131 160 -131q121 0 202 69q87 76 87 205q0 65 -4 101q-284 0 -403 -130q-42 -46 -42 -114zM893 629h504q0 231 -221 231t-283 -231z" />
<glyph unicode="&#xe7;" horiz-adv-x="929" d="M68 504q0 233 128 374q130 146 369 146q201 0 309 -59l-28 -166q-127 61 -276.5 61t-231.5 -92t-82 -264t82 -267.5t232.5 -95.5t277.5 62l24 -148q-112 -75 -305 -75q-233 0 -369 150q-130 143 -130 374zM393 -393l139 270l135 12l-180 -272z" />
<glyph unicode="&#xe8;" horiz-adv-x="1048" d="M63 510q0 221 133 366q138 148 359 148q198 0 313 -112q119 -118 119 -312q0 -57 -8 -98h-727q33 -358 377 -359q154 0 289 60l24 -146q-178 -78 -320.5 -77.5t-244 41t-171.5 111.5q-143 147 -143 378zM268 629h529q0 111 -61.5 171t-184.5 60q-223 0 -283 -231z M330 1352v147l383 -194v-84z" />
<glyph unicode="&#xe9;" horiz-adv-x="1048" d="M63 510q0 221 133 366q138 148 359 148q198 0 313 -112q119 -118 119 -312q0 -57 -8 -98h-727q33 -358 377 -359q154 0 289 60l24 -146q-178 -78 -320.5 -77.5t-244 41t-171.5 111.5q-143 147 -143 378zM268 629h529q0 111 -61.5 171t-184.5 60q-223 0 -283 -231z M332 1221v84l383 194v-147z" />
<glyph unicode="&#xea;" horiz-adv-x="1048" d="M63 510q0 221 133 366q138 148 359 148q198 0 313 -112q119 -118 119 -312q0 -57 -8 -98h-727q33 -358 377 -359q154 0 289 60l24 -146q-178 -78 -320.5 -77.5t-244 41t-171.5 111.5q-143 147 -143 378zM222 1235v74l301 217l301 -217v-74l-301 168zM268 629h529 q0 111 -61.5 171t-184.5 60q-223 0 -283 -231z" />
<glyph unicode="&#xeb;" horiz-adv-x="1048" d="M63 510q0 221 133 366q138 148 359 148q198 0 313 -112q119 -118 119 -312q0 -57 -8 -98h-727q33 -358 377 -359q154 0 289 60l24 -146q-178 -78 -320.5 -77.5t-244 41t-171.5 111.5q-143 147 -143 378zM268 629h529q0 111 -61.5 171t-184.5 60q-223 0 -283 -231z M268 1229v205h144v-205h-144zM633 1229v205h143v-205h-143z" />
<glyph unicode="&#xec;" horiz-adv-x="434" d="M27 1352v147l383 -194v-84zM125 0v1004h184v-1004h-184z" />
<glyph unicode="&#xed;" horiz-adv-x="434" d="M29 1221v84l383 194v-147zM125 0v1004h184v-1004h-184z" />
<glyph unicode="&#xee;" horiz-adv-x="434" d="M-80 1235v74l301 217l301 -217v-74l-301 168zM125 0v1004h184v-1004h-184z" />
<glyph unicode="&#xef;" horiz-adv-x="434" d="M-35 1229v205h144v-205h-144zM125 0v1004h184v-1004h-184zM330 1229v205h143v-205h-143z" />
<glyph unicode="&#xf0;" horiz-adv-x="1058" d="M57 412q0 183 112 316q120 144 308 144t289 -112q-28 174 -116 316q-29 46 -60 71q-158 -109 -289 -127l-61 113q133 18 262 106q-123 111 -248 111l65 86q147 0 306 -113q63 57 120 131l95 -24q-47 -68 -142 -173q131 -118 212 -321q81 -205 81 -386.5t-44 -287.5 t-113.5 -169.5t-155.5 -90.5t-176 -27t-173 33t-143 92q-129 124 -129 312zM262 425.5q0 -117.5 71 -199t183.5 -81.5t180 79t67.5 202t-66.5 199.5t-179 76.5t-184.5 -79.5t-72 -197z" />
<glyph unicode="&#xf1;" horiz-adv-x="1144" d="M125 0v1004h143l21 -107q143 127 332 127q410 0 409 -471v-553h-184v553q0 162 -60.5 234.5t-201.5 72.5q-201 0 -275 -131v-729h-184zM219 1249q36 134 148 173q33 12 61.5 12t65.5 -15.5t84 -35t83 -35t56 -15.5q86 0 141 105l70 -19q-23 -88 -82 -140t-137 -52 q-25 0 -61.5 16.5t-78.5 35.5t-75 35.5t-55 16.5q-109 0 -146 -100z" />
<glyph unicode="&#xf2;" horiz-adv-x="1126" d="M66 502q0 229 134 372q138 150 363 150q226 0 363 -150q135 -148 135 -372.5t-134 -373t-364 -148.5q-228 0 -365 149q-132 143 -132 373zM254 502q0 -172 81 -265.5t229.5 -93.5t228 96.5t80 264.5t-80.5 262t-229 94q-147 0 -228 -93t-81 -265zM371 1352v147l383 -194 v-84z" />
<glyph unicode="&#xf3;" horiz-adv-x="1126" d="M66 502q0 229 134 372q138 150 363 150q226 0 363 -150q135 -148 135 -372.5t-134 -373t-364 -148.5q-228 0 -365 149q-132 143 -132 373zM254 502q0 -172 81 -265.5t229.5 -93.5t228 96.5t80 264.5t-80.5 262t-229 94q-147 0 -228 -93t-81 -265zM371 1221v84l383 194 v-147z" />
<glyph unicode="&#xf4;" horiz-adv-x="1126" d="M66 502q0 229 134 372q138 150 363 150q226 0 363 -150q135 -148 135 -372.5t-134 -373t-364 -148.5q-228 0 -365 149q-132 143 -132 373zM254 502q0 -172 81 -265.5t229.5 -93.5t228 96.5t80 264.5t-80.5 262t-229 94q-147 0 -228 -93t-81 -265zM262 1235v74l301 217 l301 -217v-74l-301 168z" />
<glyph unicode="&#xf5;" horiz-adv-x="1126" d="M66 502q0 229 134 372q138 150 363 150q226 0 363 -150q135 -148 135 -372.5t-134 -373t-364 -148.5q-228 0 -365 149q-132 143 -132 373zM208 1249q36 134 148 173q33 12 61.5 12t65.5 -15.5t84 -35t83 -35t56 -15.5q86 0 141 105l70 -19q-23 -88 -82 -140t-137 -52 q-25 0 -61.5 16.5t-78.5 35.5t-75 35.5t-55 16.5q-109 0 -146 -100zM254 502q0 -172 81 -265.5t229.5 -93.5t228 96.5t80 264.5t-80.5 262t-229 94q-147 0 -228 -93t-81 -265z" />
<glyph unicode="&#xf6;" horiz-adv-x="1126" d="M66 502q0 229 134 372q138 150 363 150q226 0 363 -150q135 -148 135 -372.5t-134 -373t-364 -148.5q-228 0 -365 149q-132 143 -132 373zM254 502q0 -172 81 -265.5t229.5 -93.5t228 96.5t80 264.5t-80.5 262t-229 94q-147 0 -228 -93t-81 -265zM309 1229v205h144v-205 h-144zM674 1229v205h143v-205h-143z" />
<glyph unicode="&#xf7;" horiz-adv-x="1212" d="M135 502v151h942v-151h-942zM506 41v192h182v-192h-182zM506 901v193h182v-193h-182z" />
<glyph unicode="&#xf8;" horiz-adv-x="1167" d="M68 500q0 229 138 374q147 152 378 152q74 0 172 -25l39 82h151l-69 -135q227 -172 227 -450q0 -227 -140 -374q-67 -71 -163 -111t-189.5 -40t-201.5 23l-39 -78h-146l66 135q-223 166 -223 447zM266 514.5q0 -155.5 94 -319.5l330 673q-77 15 -129.5 15t-111 -29 t-99.5 -80q-84 -104 -84 -259.5zM475 129q86 -12 137.5 -12t110.5 29.5t99 81.5q83 106 83 270q0 147 -54 255q-17 34 -42 52z" />
<glyph unicode="&#xf9;" horiz-adv-x="1073" d="M115 420v584h184v-533q0 -328 233 -328q160 0 232 115v746h184v-1004h-164l-20 111q-94 -131 -279 -131q-371 0 -370 440zM379 1352v147l383 -194v-84z" />
<glyph unicode="&#xfa;" horiz-adv-x="1073" d="M115 420v584h184v-533q0 -328 233 -328q160 0 232 115v746h184v-1004h-164l-20 111q-94 -131 -279 -131q-371 0 -370 440zM379 1221v84l383 194v-147z" />
<glyph unicode="&#xfb;" horiz-adv-x="1073" d="M115 420v584h184v-533q0 -328 233 -328q160 0 232 115v746h184v-1004h-164l-20 111q-94 -131 -279 -131q-371 0 -370 440zM271 1235v74l301 217l301 -217v-74l-301 168z" />
<glyph unicode="&#xfc;" horiz-adv-x="1073" d="M115 420v584h184v-533q0 -328 233 -328q160 0 232 115v746h184v-1004h-164l-20 111q-94 -131 -279 -131q-371 0 -370 440zM317 1229v205h144v-205h-144zM682 1229v205h143v-205h-143z" />
<glyph unicode="&#xfd;" horiz-adv-x="1034" d="M14 1004h205l313 -746l283 746h205l-614 -1500h-205l231 541zM326 1221v84l383 194v-147z" />
<glyph unicode="&#xfe;" horiz-adv-x="1187" d="M123 -494v2030h184v-639q127 127 324 127q218 0 357 -152q134 -146 134 -370q0 -225 -132 -370q-138 -152 -360.5 -152t-322.5 135v-609h-184zM293 501q0 -167 75.5 -270.5t234.5 -103.5t246 103.5t87 270.5t-87 263t-247 96t-234.5 -96t-74.5 -263z" />
<glyph unicode="&#xff;" horiz-adv-x="1034" d="M14 1004h205l313 -746l283 746h205l-614 -1500h-205l231 541zM260 1229v205h144v-205h-144zM625 1229v205h143v-205h-143z" />
<glyph unicode="&#x152;" horiz-adv-x="2193" d="M82 717q0 336 194 541q194 204 498 204q127 0 245 -45t259 -153v168h821v-175h-635v-419h488v-176h-488v-486h654v-176h-840v170q-141 -109 -259 -154t-258.5 -45t-267 53.5t-219.5 151.5q-192 204 -192 541zM287 717q0 -257 123 -408q131 -162 364 -162q231 0 362 162 q124 153 124 408t-126 409q-129 160 -361 160q-118 0 -209 -42t-152 -118q-125 -152 -125 -409z" />
<glyph unicode="&#x153;" horiz-adv-x="1847" d="M66 512q0 227 138 366q143 146 374 146q123 0 232 -54q114 -56 159 -155q80 146 269 195q56 14 133 14t158 -28.5t137 -83.5q120 -116 120 -306q0 -63 -8 -104h-703q0 -205 115 -304q83 -71 232 -71t294 76l21 -158q-147 -66 -325.5 -65.5t-283 54.5t-151.5 165 q-45 -104 -157.5 -161.5t-240 -57.5t-220.5 40.5t-159 112.5q-134 148 -134 379zM254 501q0 -173 81 -265.5t237.5 -92.5t235.5 101.5t79 262.5t-81 257t-234.5 96t-235.5 -93t-82 -266zM1079 629h518q-8 111 -73 171t-176 60q-219 0 -269 -231z" />
<glyph unicode="&#x178;" horiz-adv-x="1161" d="M-6 1434h205l381 -596l381 596h204l-483 -772v-662h-203v662zM352 1657v205h144v-205h-144zM717 1657v205h143v-205h-143z" />
<glyph unicode="&#x2c6;" horiz-adv-x="913" d="M156 1235v74l301 217l301 -217v-74l-301 168z" />
<glyph unicode="&#x2dc;" horiz-adv-x="1081" d="M188 1249q36 134 148 173q33 12 61.5 12t65.5 -15.5t84 -35t83 -35t56 -15.5q86 0 141 105l70 -19q-23 -88 -82 -140t-137 -52q-25 0 -61.5 16.5t-78.5 35.5t-75 35.5t-55 16.5q-109 0 -146 -100z" />
<glyph unicode="&#x2000;" horiz-adv-x="987" />
<glyph unicode="&#x2001;" horiz-adv-x="1974" />
<glyph unicode="&#x2002;" horiz-adv-x="987" />
<glyph unicode="&#x2003;" horiz-adv-x="1974" />
<glyph unicode="&#x2004;" horiz-adv-x="658" />
<glyph unicode="&#x2005;" horiz-adv-x="493" />
<glyph unicode="&#x2006;" horiz-adv-x="329" />
<glyph unicode="&#x2007;" horiz-adv-x="329" />
<glyph unicode="&#x2008;" horiz-adv-x="246" />
<glyph unicode="&#x2009;" horiz-adv-x="394" />
<glyph unicode="&#x200a;" horiz-adv-x="109" />
<glyph unicode="&#x2010;" horiz-adv-x="868" d="M117 487v177h635v-177h-635z" />
<glyph unicode="&#x2011;" horiz-adv-x="868" d="M117 487v177h635v-177h-635z" />
<glyph unicode="&#x2012;" horiz-adv-x="868" d="M117 487v177h635v-177h-635z" />
<glyph unicode="&#x2013;" horiz-adv-x="1028" d="M117 487v177h794v-177h-794z" />
<glyph unicode="&#x2014;" horiz-adv-x="1216" d="M117 487v177h983v-177h-983z" />
<glyph unicode="&#x2018;" horiz-adv-x="380" d="M88 1137v176l160 223l47 -27l-72 -178l70 -18v-176h-205z" />
<glyph unicode="&#x2019;" horiz-adv-x="346" d="M86 1163l72 178l-70 19v176h205v-176l-160 -223z" />
<glyph unicode="&#x201a;" horiz-adv-x="442" d="M117 -197l71 179l-69 18v176h205v-176l-160 -223z" />
<glyph unicode="&#x201c;" horiz-adv-x="811" d="M88 1137v176l160 223l47 -27l-72 -178l70 -18v-176h-205zM518 1137v176l160 223l47 -27l-72 -178l70 -18v-176h-205z" />
<glyph unicode="&#x201d;" horiz-adv-x="776" d="M86 1163l72 178l-70 19v176h205v-176l-160 -223zM516 1163l72 178l-70 19v176h205v-176l-160 -223z" />
<glyph unicode="&#x201e;" horiz-adv-x="913" d="M117 -197l71 179l-69 18v176h205v-176l-160 -223zM588 -197l71 179l-69 18v176h205v-176l-160 -223z" />
<glyph unicode="&#x2022;" horiz-adv-x="626" d="M90 569q0 87 68 156q66 68 155 68q88 0 156 -68t68 -157.5t-66 -155.5t-158 -66q-88 0 -155.5 67.5t-67.5 155.5z" />
<glyph unicode="&#x2026;" horiz-adv-x="1384" d="M117 0v176h184v-176h-184zM600 0v176h184v-176h-184zM1083 0v176h185v-176h-185z" />
<glyph unicode="&#x202f;" horiz-adv-x="394" />
<glyph unicode="&#x2039;" horiz-adv-x="659" d="M29 582l325 422h224l-326 -422l326 -422h-224z" />
<glyph unicode="&#x203a;" horiz-adv-x="661" d="M84 160l326 422l-326 422h223l326 -422l-326 -422h-223z" />
<glyph unicode="&#x205f;" horiz-adv-x="493" />
<glyph unicode="&#x20ac;" horiz-adv-x="1439" d="M68 440l49 142h202q-8 78 -8 135v39h-182l45 141h156q58 235 227 367q171 135 395 135t371 -70l-25 -201q-186 78 -335 78q-299 0 -394 -309h529l-49 -141h-500v-39q0 -55 10 -135h498l-49 -142h-406q121 -213 361 -213q150 0 335 78l25 -201q-147 -70 -358 -69.5 t-371 106.5t-238 299h-288z" />
<glyph unicode="&#x2122;" horiz-adv-x="1488" d="M63 1331v103h531l-12 -103h-205v-641h-105v641h-209zM627 690l96 744h59l215 -367l213 367h60l98 -744h-111l-63 549l-193 -332h-12l-188 334l-68 -551h-106z" />
<glyph unicode="&#xe000;" horiz-adv-x="1003" d="M0 0v1004h1004v-1004h-1004z" />
</font>
</defs>
</svg>
