<?xml version="1.0" standalone="no"?>
<!DOCTYPE svg PUBLIC "-//W3C//DTD SVG 1.1//EN" "http://www.w3.org/Graphics/SVG/1.1/DTD/svg11.dtd" >
<svg xmlns="http://www.w3.org/2000/svg">
<metadata></metadata>
<defs>
<font id="JosefinSlabRegular" horiz-adv-x="1101" >
<font-face units-per-em="2048" ascent="1536" descent="-512" />
<missing-glyph horiz-adv-x="614" />
<glyph horiz-adv-x="0" />
<glyph horiz-adv-x="2048" />
<glyph unicode="&#xd;" horiz-adv-x="614" />
<glyph unicode=" "  horiz-adv-x="614" />
<glyph unicode="&#x09;" horiz-adv-x="614" />
<glyph unicode="&#xa0;" horiz-adv-x="614" />
<glyph unicode="!" horiz-adv-x="411" d="M139 113q0 29 20.5 48t45.5 19t45 -19.5t20 -47.5q0 -29 -20 -48.5t-45 -19.5t-45.5 19.5t-20.5 48.5zM162 340v1196h86v-1196h-86z" />
<glyph unicode="&#x22;" horiz-adv-x="634" d="M129 967v508h90l-8 -508h-82zM401 967v508h91l-9 -508h-82z" />
<glyph unicode="#" horiz-adv-x="1169" d="M55 430l11 84h221q20 180 32 291h-217q2 11 9 82h219l53 430h86q-14 -109 -26.5 -215.5t-26.5 -214.5h291l53 430h86q-14 -109 -26.5 -215.5t-26.5 -214.5h251l-8 -82h-254q-12 -111 -32 -291h247l-8 -84h-252l-49 -430h-86l49 430h-291l-49 -430h-86l49 430h-219z M373 514h291q20 180 32 291h-290q-8 -74 -16.5 -146.5t-16.5 -144.5z" />
<glyph unicode="$" horiz-adv-x="1161" d="M74 156v217h82v-185q121 -111 290 -118v661q-149 44 -206.5 90.5t-86 101t-32.5 127t13.5 137t57.5 117.5q90 123 254 134v127h84v-125q183 -11 291 -101v-221h-82v180q-80 53 -209 60v-565q72 -23 142.5 -48.5t127.5 -70.5q126 -101 130 -293q0 -170 -116 -281 q-111 -106 -284 -114v-125h-84v127q-188 10 -318 116q-34 27 -54 52zM207 1069q0 -55 19.5 -95t51.5 -68q50 -44 168 -85v531q-112 -11 -178 -96q-61 -76 -61 -187zM530 70q133 13 220 92q94 85 94 222q0 75 -26.5 130t-71.5 91q-63 52 -216 100v-635z" />
<glyph unicode="%" horiz-adv-x="1486" d="M207 797q0 96 71 167q68 68 168 68q98 0 168 -68q72 -70 72 -167q0 -100 -72 -169q-70 -69 -168 -69q-100 0 -168 69q-71 70 -71 169zM293 796.5q0 -64.5 44 -109t109 -44.5q66 0 110 44t44 109t-44 108.5t-110 43.5t-109.5 -43.5t-43.5 -108zM397 0l611 1024h94 q-423 -708 -610 -1024h-95zM829 229q0 98 71 167q70 69 169 69q96 0 168 -69q72 -68 72 -167q0 -100 -72 -169q-72 -68 -168 -68q-99 0 -169 68q-71 70 -71 169zM915 227.5q0 -64.5 44.5 -108t109.5 -43.5q66 0 110 44t44 108t-44 109.5t-110 45.5t-110 -45.5t-44 -110z" />
<glyph unicode="&#x26;" horiz-adv-x="1433" d="M217 383q0 150 94 259q95 110 238 134l-146 240q-77 127 -57 256q22 136 152 215q101 62 236 39q92 -16 196 -80l-35 -70q-105 57 -157 67q-110 23 -185 -24q-111 -70 -123 -174t49 -205l428 -696q29 51 29 113v311h295v-84h-209v-139q2 -74 0 -160t-39 -164l133 -215 l-65 -45l-111 178q-55 -72 -139 -113.5t-175.5 -41.5t-164 31.5t-126.5 84.5q-118 117 -118 283zM301 382q0 -65 24.5 -122t66.5 -100q90 -92 226 -92q90 0 161 42t112 109l-293 479q-128 -12 -212 -98q-85 -87 -85 -218z" />
<glyph unicode="'" horiz-adv-x="313" d="M117 967v508h90l-8 -508h-82z" />
<glyph unicode="(" horiz-adv-x="831" d="M274 598q0 285 105 551q92 234 233 381q41 -31 64 -47q-215 -248 -289 -609q-27 -131 -27 -276q0 -396 200 -725q56 -92 116 -160q-41 -31 -64 -47q-139 143 -233 381q-105 266 -105 551z" />
<glyph unicode=")" horiz-adv-x="819" d="M197 -291q216 249 289 609q26 131 26 276q0 400 -200 725q-56 92 -115 160l63 47q229 -247 310 -639q28 -139 28 -293q0 -289 -104 -551q-93 -231 -234 -381z" />
<glyph unicode="*" horiz-adv-x="686" d="M68 1075q47 27 94 52.5t94 52.5l-186 110q16 35 41 72q47 -29 94 -55.5t94 -55.5v224h90q0 -55 -1 -110.5t-1 -113.5q8 5 193 109l41 -72q-49 -29 -96.5 -55t-96.5 -55l190 -109l-47 -78q-47 29 -93 55.5t-93 55.5q-2 -53 -2 -106.5t-2 -106.5h-82v213 q-153 -88 -184 -107z" />
<glyph unicode="+" horiz-adv-x="1112" d="M176 432v84h326v326h86v-326h325v-84h-325v-328h-86v328h-326z" />
<glyph unicode="," horiz-adv-x="409" d="M35 -246l158 422h96l-176 -422h-78z" />
<glyph unicode="-" horiz-adv-x="614" d="M109 346v84h376v-84h-376z" />
<glyph unicode="." horiz-adv-x="333" d="M109 68q0 29 20.5 48t46 19t46 -19.5t20.5 -47.5q0 -29 -20.5 -48.5t-46.5 -19.5t-46 19.5t-20 48.5z" />
<glyph unicode="/" horiz-adv-x="706" d="M35 -39l569 1546h86l-569 -1546h-86z" />
<glyph unicode="0" horiz-adv-x="1261" d="M74 657q0 134 35.5 255.5t104.5 218t173.5 157t242.5 60.5t240.5 -61.5t169.5 -160.5q134 -194 134 -462q0 -147 -46.5 -272.5t-123 -215.5t-177 -140t-209.5 -50t-208 52t-173.5 143t-118.5 216.5t-44 259.5zM162 663q0 -126 38 -237t102 -190q136 -168 319 -168 q90 0 174 43t149 121q143 172 143 430q0 252 -121 420q-59 83 -145 132.5t-193.5 49.5t-193.5 -47.5t-146.5 -129t-93 -190t-32.5 -234.5z" />
<glyph unicode="1" horiz-adv-x="542" d="M70 1247v84h280v-1249h164v-82h-414v82h164v1165h-194z" />
<glyph unicode="2" horiz-adv-x="1034" d="M98 949q0 81 26 154t75 127q107 118 288 118q170 0 278 -119q105 -115 105 -291q0 -267 -358 -648q-99 -104 -195 -206h560v215h81v-299h-849q129 127 250.5 249t216.5 237q208 255 208 427q0 179 -103 275q-82 76 -184 76t-160 -33t-92 -80q-61 -84 -61 -212t80 -216 l-51 -51q-53 47 -84 121.5t-31 155.5z" />
<glyph unicode="3" horiz-adv-x="1054" d="M162 123l63 63q100 -118 248 -118q144 0 246 102t102 242q0 139 -102 241q-101 101 -246 101q-67 0 -129 -43l375 536h-426v-123h-82v207h661l-362 -504q167 -12 282 -129t115 -286q0 -177 -125.5 -302.5t-304.5 -125.5q-187 0 -315 139z" />
<glyph unicode="4" horiz-adv-x="1054" d="M76 375l749 973v-889h199v-84h-199v-293h170v-82h-411v82h155v293h-663zM250 459h489v637z" />
<glyph unicode="5" horiz-adv-x="1112" d="M225 102l64 58q96 -92 229 -92q144 0 246 102t102 242q0 138 -102 238t-246 100q-149 0 -225 -93v674h588v-207h-82v123h-420v-444q73 31 151 31t157 -33t137 -91q128 -125 128 -298q0 -175 -128 -302q-125 -126 -304 -126q-166 0 -295 118z" />
<glyph unicode="6" horiz-adv-x="1064" d="M102 386q-2 160 61.5 288.5t162 240t219.5 207t235 178.5q35 -46 56 -69q-219 -143 -344 -273.5t-181 -224.5q88 101 217 101q177 0 304 -126q126 -123 126 -300q0 -176 -126 -300t-304 -124q-174 0 -300 122q-124 120 -126 280zM186 407q0 -71 27 -132.5t74 -107.5 q101 -99 241 -99q143 0 244 99q102 100 102 241q0 139 -102 241q-101 101 -244 101q-140 0 -241 -101t-101 -242z" />
<glyph unicode="7" horiz-adv-x="960" d="M29 1124v207h831l-598 -1331h-100l563 1247h-614v-123h-82z" />
<glyph unicode="8" horiz-adv-x="1044" d="M94 412q0 135 76 238.5t195 148.5q-70 33 -112 98.5t-42 136.5t23.5 127t65.5 97q91 90 216 90q129 0 219 -92t90 -216q0 -80 -42 -143t-107 -98q193 -75 256 -259q20 -61 20 -138.5t-34.5 -155.5t-93.5 -136q-125 -126 -304 -126q-174 0 -300 126t-126 302zM182 412 q0 -142 98 -243q99 -103 238 -103q145 0 246 103q102 104 102 243q0 135 -101 236q-102 102 -243 102t-242 -100q-98 -96 -98 -238zM297 1037q0 -44 17.5 -81.5t47.5 -64.5q65 -57 158.5 -57t156 57t62.5 145q0 93 -62 159q-65 69 -157 69t-158 -69q-65 -69 -65 -158z" />
<glyph unicode="9" horiz-adv-x="1075" d="M88 874q0 175 126 300q126 124 304 124t304 -124t126 -284.5t-63.5 -287.5t-162.5 -237.5t-220 -204.5t-234 -176q-14 16 -27.5 33.5t-27.5 33.5q217 145 343 274.5t181 225.5q-83 -100 -219 -100q-180 0 -304 123q-126 124 -126 300zM174 874q0 -140 102 -241 q103 -101 244 -101q142 0 241 101t99 240q0 71 -26.5 133.5t-72.5 108.5q-99 99 -241 99q-141 0 -244 -99q-102 -99 -102 -241z" />
<glyph unicode=":" horiz-adv-x="358" d="M106 68q0 29 20.5 48t47.5 19t46.5 -19.5t19.5 -47.5q0 -29 -19.5 -48.5t-46.5 -19.5t-47.5 19.5t-20.5 48.5zM106 580q0 29 20.5 48t47.5 19t46.5 -19.5t19.5 -47.5q0 -29 -19.5 -48.5t-46.5 -19.5t-47.5 19.5t-20.5 48.5z" />
<glyph unicode=";" horiz-adv-x="411" d="M4 -246l158 422h98l-176 -422h-80zM160 580q0 29 20.5 48t46.5 19q27 0 47.5 -19.5t20.5 -47.5q0 -29 -20.5 -48.5t-47.5 -19.5t-47 19.5t-20 48.5z" />
<glyph unicode="&#x3c;" horiz-adv-x="1392" d="M236 487q225 129 448 259.5t449 259.5v-113q-176 -102 -351.5 -202.5t-353.5 -203.5q550 -315 705 -405v-113q-225 129 -448.5 259t-448.5 259z" />
<glyph unicode="=" horiz-adv-x="1449" d="M205 276v84h1036v-84h-1036zM205 674v84h1036v-84h-1036z" />
<glyph unicode="&#x3e;" horiz-adv-x="1331" d="M236 -31v113q461 264 704 405q-397 230 -704 406v113q225 -129 448 -259.5t449 -259.5q-225 -129 -448.5 -259t-448.5 -259z" />
<glyph unicode="?" horiz-adv-x="925" d="M72 1210q65 193 244 264q65 25 148 25t156.5 -31.5t127.5 -85.5q116 -116 116 -282q0 -205 -200 -346q-35 -27 -69 -47.5t-61 -46.5q-59 -57 -59 -164v-160h-86v199q0 105 81 173q36 31 82 59t104 76q122 100 122 257q0 135 -90 225t-217 90t-208 -61t-116 -170 q-9 4 -75 26zM365 98q0 29 21.5 48.5t45.5 19.5q25 0 45.5 -19.5t20.5 -48.5t-20.5 -48t-45.5 -19t-46 19.5t-21 47.5z" />
<glyph unicode="@" horiz-adv-x="2027" d="M168 387q0 172 65.5 323.5t179 264t265 178.5t323.5 66t324 -66t264.5 -178.5t178 -264t65.5 -325.5q-11 -213 -114 -309q-81 -76 -210 -76h-184v82q0 25 1 48.5t1 45.5q-30 -76 -116 -131q-92 -59 -194 -59t-175.5 31.5t-127.5 84.5q-118 116 -118 283 q0 164 117.5 281.5t285.5 117.5q112 0 207 -62q91 -59 119 -134l8 180h70v-686h115q98 0 161.5 71.5t65.5 229.5t-56.5 295t-160 238.5t-237.5 160t-291 58.5t-291 -58.5t-237 -160t-159.5 -238.5t-58.5 -293t58.5 -291t159.5 -236.5t237.5 -159.5t291.5 -58q243 0 441 139 q37 -43 51 -62q-211 -161 -492 -161q-172 0 -323.5 65.5t-265 178t-179 264t-65.5 323.5zM682 385q0 -130 91 -223q90 -92 226 -92q137 0 227 92q91 93 91 223q0 132 -91 225q-90 92 -227 92q-136 0 -226 -92q-91 -93 -91 -225z" />
<glyph unicode="A" horiz-adv-x="1662" d="M72 0v82h157q452 1060 602 1417l601 -1417h159v-82h-395v82h150l-226 532h-577q-57 -135 -112.5 -267t-113.5 -265h150v-82h-395zM580 696h503l-233 555l-19 58q-4 -6 -9 -24.5t-18 -52.5t-41 -100.5t-58.5 -139t-62.5 -148.5t-62 -148z" />
<glyph unicode="B" horiz-adv-x="1077" d="M72 0v82h125v1270h-125v82h452q311 0 398 -196q30 -69 30 -179.5t-62.5 -206.5t-191.5 -131q204 -40 282 -219q26 -60 26 -142.5t-37 -151.5t-99 -115q-127 -93 -309 -93h-489zM281 82h272q247 0 339 165q30 54 30 131t-34 134t-90 95q-109 73 -280 73h-237v-598z M281 762h270q145 0 231 85t86 222q0 283 -325 283h-262v-590z" />
<glyph unicode="C" horiz-adv-x="1249" d="M72 715q0 152 57 286t156.5 233t232.5 157.5t309 58.5t351 -102v-230h-82v176q-140 74 -283 74t-261 -52t-206 -142q-188 -191 -188 -461q0 -133 50 -251t138 -206q190 -190 453 -190q176 0 329 90l48 -70q-178 -102 -351.5 -102t-306.5 57t-232.5 156.5t-156.5 232.5 t-57 285z" />
<glyph unicode="D" horiz-adv-x="1294" d="M72 0v82h129v1270h-129v82h430q302 0 508 -194q98 -93 155.5 -226t57.5 -275.5t-42 -269.5t-136.5 -231.5t-245 -171t-367.5 -66.5h-360zM285 82h178q323 0 508 198q168 178 168 437q0 285 -188 464q-179 171 -449 171h-217v-1270z" />
<glyph unicode="E" horiz-adv-x="1169" d="M72 0v82h147v1270h-147v82h997v-316h-82v234h-684v-588h686v-82h-686v-600h713v233h82v-315h-1026z" />
<glyph unicode="F" horiz-adv-x="1140" d="M72 0v82h147v1270h-147v82h997v-316h-82v234h-684v-588h686v-82h-686v-600h180v-82h-411z" />
<glyph unicode="G" horiz-adv-x="1247" d="M72 711q0 152 57 285.5t156.5 233t232.5 158t261 58.5q226 0 399 -103l-48 -69q-151 90 -305.5 90t-272.5 -52t-206 -142q-188 -191 -188 -461q0 -133 50 -251t138 -206q191 -191 453 -191q156 0 291 70v397h-295v82h381v-528q-178 -102 -351.5 -102t-306.5 57 t-232.5 156.5t-156.5 232.5t-57 285z" />
<glyph unicode="H" horiz-adv-x="1511" d="M72 0v82h159v1270h-159v82h411v-82h-168v-588h881v588h-168v82h412v-82h-158v-1270h158v-82h-412v82h168v600h-881v-600h168v-82h-411z" />
<glyph unicode="I" horiz-adv-x="555" d="M72 0v82h159v1270h-159v82h411v-82h-168v-1270h168v-82h-411z" />
<glyph unicode="J" horiz-adv-x="567" d="M72 -211q152 8 243 113q97 111 97 288v1162h-340v82h424v-1250q0 -219 -124 -348q-118 -125 -300 -129v82z" />
<glyph unicode="K" horiz-adv-x="1404" d="M72 0v82h157v1270h-157v82h395v-82h-152v-561q-4 -32 -4 -62l37 43l606 580h-108v82h395v-82h-176l-514 -490q130 -167 614 -780h168v-82h-395v82h123q-211 270 -569 725l-179 -170l2 -555h168v-82h-411z" />
<glyph unicode="L" horiz-adv-x="1163" d="M72 0v82h141v1270h-141v82h395v-82h-170v-1270h713v233h82v-315h-1020z" />
<glyph unicode="M" horiz-adv-x="1980" d="M72 0v82h166v1270h-166v82h215q60 -81 144.5 -190t152 -198.5t138.5 -180.5q200 -256 265 -343l701 912h215v-82h-166v-1270h172v-82h-412v82h154v1096l4 65v17q-6 -11 -44 -63t-115 -152.5t-165 -215t-179 -232.5t-165 -214q-263 343 -373 488t-164.5 214.5 t-105.5 135.5l-25 39q0 -32 5 -82v-1096h159v-82h-411z" />
<glyph unicode="N" horiz-adv-x="1732" d="M72 0v82h166v1270h-166v82h221l1077 -1254l39 -53l-6 66v1159h-154v82h412v-82h-172v-1418l-1172 1354l7 -57v-1149h159v-82h-411z" />
<glyph unicode="O" horiz-adv-x="1609" d="M72 715q0 152 57 286t156.5 233t232.5 157.5t285 58.5t286 -58.5t233 -157.5t157.5 -233.5t58.5 -285.5q0 -152 -58.5 -285t-157.5 -232.5t-233.5 -156.5t-285.5 -57q-152 0 -285 57t-232.5 156.5t-156.5 232.5t-57 285zM158 713q0 -135 50 -253t138 -205t205 -138 t250 -51t251.5 51t207.5 139q192 188 192 459q0 268 -190 461q-88 90 -207 141t-252 51t-251 -52t-206 -142q-188 -191 -188 -461z" />
<glyph unicode="P" horiz-adv-x="1013" d="M72 0v82h125v1270h-125v82h432q154 0 282 -86q156 -106 156 -285.5t-111.5 -284t-322.5 -104.5h-227v-592h202v-82h-411zM281 758h213q194 0 289 102q75 80 75 199q0 118 -104 205q-105 88 -258 88h-215v-594z" />
<glyph unicode="Q" horiz-adv-x="1654" d="M72 715q0 152 57 286t156.5 233t232.5 157.5t285 58.5t286 -58.5t233 -157.5t157.5 -233.5t58.5 -262t-28.5 -224t-79.5 -177.5q-107 -167 -283 -255h436v-82h-629q-78 -16 -151 -16q-152 0 -285 57t-232.5 156.5t-156.5 232.5t-57 285zM158 714q0 -134 50 -252t138 -206 q190 -190 453 -190q268 0 461 190q192 188 192 459q0 268 -190 461q-88 90 -207 141t-252 51t-251 -52t-206 -141.5t-138 -208t-50 -252.5z" />
<glyph unicode="R" horiz-adv-x="1171" d="M72 0v82h125v1270h-125v82h432q154 0 282 -86q156 -106 156 -289q0 -147 -79 -244.5t-228 -128.5l285 -604h180v-82h-234l-319 678q-46 -4 -94 -4h-172v-592h202v-82h-411zM281 758h213q194 0 289 102q75 80 75 199q0 118 -104 205q-105 88 -258 88h-215v-594z" />
<glyph unicode="S" horiz-adv-x="978" d="M74 156v217h82v-185q136 -122 333 -122q144 0 246 82q109 88 109 229q0 221 -224 301q-63 22 -129.5 41.5t-131 42t-117.5 59.5q-114 81 -121 238q-1 14 -1 27q0 133 83 232q103 124 299.5 124t318.5 -103v-221h-82v180q-97 62 -247 62q-137 0 -214 -87q-71 -79 -71 -200 q0 -131 111 -199q51 -30 115.5 -50.5t132 -41t132 -48t115.5 -72.5q113 -98 117 -281q0 -178 -126 -290q-121 -107 -306 -107q-218 0 -362 114q-39 31 -62 58z" />
<glyph unicode="T" horiz-adv-x="1275" d="M72 1118v316h1132v-316h-82v234h-442v-1270h160v-82h-412v82h168v1270h-442v-234h-82z" />
<glyph unicode="U" horiz-adv-x="1425" d="M72 1352v82h411v-82h-168v-883q0 -189 112 -299q106 -104 286 -104q175 0 285 104q112 107 112 299v883h-168v82h412v-82h-158v-889q0 -229 -140 -357q-131 -122 -343 -122q-216 0 -345 122q-139 129 -139 357v889h-157z" />
<glyph unicode="V" horiz-adv-x="1699" d="M72 1352v82h411v-82h-151q179 -429 495 -1170l19 -57l18 57q123 293 247 584t247 586h-141v82h411v-82h-182q-150 -356 -300.5 -708.5t-299.5 -709.5q-453 1060 -602 1418h-172z" />
<glyph unicode="W" horiz-adv-x="2463" d="M72 1352v82h411v-82h-151q360 -863 495 -1170l19 -57q68 205 160 407.5t178 403.5q-63 151 -176 416h-172v82h411v-82h-153q307 -735 495 -1170l19 -57l18 57q360 845 496 1170h-142v82h412v-82h-184q-150 -356 -299.5 -708.5t-300.5 -709.5l-363 854l-18 56 q-82 -227 -184.5 -456.5t-196.5 -453.5q-453 1060 -602 1418h-172z" />
<glyph unicode="X" horiz-adv-x="1441" d="M72 0v82h170l422 653l-402 617h-190v82h411v-82h-116q86 -129 168.5 -258t166.5 -258l21 -37l20 37l332 516h-119v82h414v-82h-192q-110 -176 -404 -627l420 -643h176v-82h-414v82h131l-307 473q-16 25 -32.5 53.5t-32.5 53.5l-21 -39q-88 -137 -175 -271.5t-173 -269.5 h137v-82h-411z" />
<glyph unicode="Y" horiz-adv-x="1527" d="M72 1352v82h411v-82h-149q205 -338 405 -676l25 -58h2l22 58l404 676h-148v82h412v-82h-160q-242 -411 -481 -809v-461h160v-82h-412v82h152v461q-110 181 -484 809h-159z" />
<glyph unicode="Z" horiz-adv-x="1288" d="M72 0v82l977 1270h-943v153h87v-71h964v-82l-977 -1270h955v330h82v-412h-1145z" />
<glyph unicode="[" horiz-adv-x="692" d="M170 -305v1833h358v-84h-270v-1665h270v-84h-358z" />
<glyph unicode="\" horiz-adv-x="708" d="M20 1507h95q143 -389 284.5 -773t284.5 -773h-94q-329 894 -570 1546z" />
<glyph unicode="]" horiz-adv-x="700" d="M156 -221h270v1665h-270v84h358v-1833h-358v84z" />
<glyph unicode="^" horiz-adv-x="962" d="M229 981q61 92 123 185.5t123 185.5q61 -92 122.5 -185.5t123.5 -185.5h-68q-45 61 -89 123.5t-89 124.5l-178 -248h-68z" />
<glyph unicode="_" horiz-adv-x="1228" d="M205 0v84h819v-84h-819z" />
<glyph unicode="`" horiz-adv-x="409" d="M-59 1253h88q47 -68 92 -136t92 -136h-68q-51 68 -102 136.5t-102 135.5z" />
<glyph unicode="a" d="M72 385q0 164 117.5 281.5t285.5 117.5q114 0 209 -62q83 -54 117 -134l8 180h70v-686h151v-82h-229v82q0 25 1 48.5t1 45.5q-30 -76 -116 -131q-92 -59 -194 -59t-175.5 31.5t-127.5 84.5q-118 116 -118 283zM158 385q0 -130 91 -223q90 -92 226 -92q133 0 225 92 q93 93 93 223q0 132 -93 225q-92 92 -225 92q-136 0 -226 -92q-91 -93 -91 -225z" />
<glyph unicode="b" d="M72 0v82h151v1372h-143v82h229v-846q-2 -25 -4 -50.5t-4 -49.5q29 77 117 134q92 60 192.5 60t174 -31.5t127.5 -86.5q118 -117 118 -281q0 -167 -118 -283t-285 -116q-179 0 -284 120q-30 35 -44 70l2 -94v-82h-229zM309 385q0 -131 92 -223t226 -92q136 0 226 92 q91 93 91 223q0 132 -91 225q-90 92 -226 92q-134 0 -226 -92t-92 -225z" />
<glyph unicode="c" horiz-adv-x="800" d="M72 385q0 167 118 283t274 116t265 -88v-200h-78v151q-79 55 -162.5 55t-140.5 -24.5t-99 -67.5q-91 -93 -91 -225q0 -130 91 -223q90 -92 215.5 -92t209.5 67l53 -63q-114 -88 -254 -88q-165 0 -283 116t-118 283z" />
<glyph unicode="d" d="M72 385q0 164 117.5 281.5t285.5 117.5q172 0 281 -122q30 -35 45 -72l-8 172v692h-144v82h230v-1454h151v-82h-229v82q0 25 1 48.5t1 45.5q-30 -76 -116 -131q-92 -59 -194 -59t-175.5 31.5t-127.5 84.5q-118 116 -118 283zM158 385q0 -130 91 -223q90 -92 226 -92 q133 0 225 92q93 93 93 223q0 132 -93 225q-92 92 -225 92q-136 0 -226 -92q-91 -93 -91 -225z" />
<glyph unicode="e" horiz-adv-x="903" d="M72 385q0 167 118 283t283 116q119 0 218 -80q98 -81 134 -206l-635 -252q35 -78 111 -127t188.5 -49t198.5 86q5 -6 53 -64q-115 -106 -268 -106q-165 0 -283 116t-118 283zM166 326l551 219q-35 70 -100.5 113.5t-142.5 43.5t-139.5 -31.5t-105.5 -83.5 q-70 -85 -70 -192q0 -33 7 -69z" />
<glyph unicode="f" horiz-adv-x="620" d="M72 0v82h125v602h-125v84h125v293q0 222 123 348q115 119 301 127v-82q-150 -4 -241 -106q-99 -111 -99 -285v-295h256v-84h-256v-602h186v-82h-395z" />
<glyph unicode="g" horiz-adv-x="1103" d="M72 385q0 164 117.5 281.5t285.5 117.5q114 0 209 -62q83 -54 117 -134l8 180h223v-82h-153v-758q0 -195 -115 -320q-107 -116 -277 -120q-86 2 -173 32.5t-142 90.5l61 63q45 -49 115 -73.5t135 -24.5t122 25.5t97 72.5q91 105 91 260v148q2 23 4 46.5t4 45.5 q-54 -124 -213 -172q-53 -16 -125 -16t-145.5 31.5t-127.5 84.5q-118 116 -118 283zM158 385q0 -130 91 -223q90 -92 226 -92q133 0 225 92q93 93 93 223q0 132 -93 225q-92 92 -225 92q-136 0 -226 -92q-91 -93 -91 -225z" />
<glyph unicode="h" horiz-adv-x="1116" d="M72 0v82h159v1372h-151v82h235v-874l-6 -93q43 98 132 154.5t204 58.5h7q110 0 174 -62q66 -64 69 -165v-473h149v-82h-395v82h160v450q-4 66 -48 115q-43 49 -117 51h-13q-67 0 -119 -20q-58 -22 -101 -58q-96 -79 -96 -200v-338h152v-82h-395z" />
<glyph unicode="i" horiz-adv-x="538" d="M72 0v82h157v604h-157v82h243v-686h152v-82h-395zM207 1040q0 29 20.5 48.5t46 19.5t46 -19.5t20.5 -48.5t-20.5 -48t-46.5 -19t-46 19t-20 48z" />
<glyph unicode="j" horiz-adv-x="376" d="M72 686v82h233v-776q0 -232 -135 -361l-61 62q112 108 112 297v696h-149zM199 1040q0 29 20.5 48.5t46.5 19.5q27 0 46.5 -19.5t19.5 -48.5t-19.5 -48t-46.5 -19t-47 19t-20 48z" />
<glyph unicode="k" horiz-adv-x="1030" d="M72 0v82h151v1372h-145v82h229v-1147l318 297h-123v82h379v-82h-148l-231 -221q80 -115 278 -383h178v-82h-378v82h98q-59 82 -119.5 163t-120.5 163l-131 -123v-203h160v-82h-395z" />
<glyph unicode="l" horiz-adv-x="538" d="M72 0v82h151v1372h-145v82h229v-1454h160v-82h-395z" />
<glyph unicode="m" horiz-adv-x="1695" d="M72 0v82h159v604h-147v82h217l2 -72q2 -35 4 -63.5t2 -63.5q43 98 132 155.5t199 58.5h4q108 0 172 -55q65 -56 77 -148q43 92 131 147t201 56h3q111 -1 175 -63q65 -64 70 -165v-473h151v-82h-395v82h160v450q-4 66 -48.5 115t-118.5 51h-12q-66 0 -118 -18 q-58 -20 -101 -58q-92 -78 -96 -196v-344h152v-82h-398v82h160v450q-4 66 -48 115q-43 49 -117 51h-13q-67 0 -119 -20q-58 -22 -101 -58q-96 -79 -96 -200v-338h152v-82h-395z" />
<glyph unicode="n" horiz-adv-x="1116" d="M72 0v82h159v604h-147v82h217l2 -72q2 -35 4 -63.5t2 -63.5q41 96 132 155.5t205 59.5t179.5 -63.5t69.5 -165.5v-473h149v-82h-395v82h160v450q-4 66 -48 115q-43 49 -117 51h-13q-67 0 -119 -20q-58 -22 -101 -58q-96 -79 -96 -200v-338h152v-82h-395z" />
<glyph unicode="o" horiz-adv-x="952" d="M74 384q0 83 31.5 156.5t86.5 127.5q117 118 283 118q168 0 287 -118q119 -117 119 -283q0 -167 -119 -283q-120 -116 -287 -116q-165 0 -283 116t-118 282zM158 385q0 -131 92 -223t223 -92q133 0 225 92q93 93 93 223t-93 223q-94 94 -225 94q-129 0 -223 -94 q-92 -92 -92 -223z" />
<glyph unicode="p" d="M72 686v82h221q0 -45 3 -92t5 -92q30 79 117 136q95 62 195 62t173.5 -31.5t127.5 -84.5q116 -114 116 -283q0 -166 -116 -281q-117 -118 -285 -118q-116 0 -210 58q-87 54 -116 130q4 -40 8 -82v-520h172v-82h-395v82h137v1116h-153zM309 383q0 -133 92 -225t228 -92 q134 0 224 92q91 93 91 226q0 67 -24.5 124t-66.5 99q-91 91 -224 91q-135 0 -228 -91q-92 -90 -92 -224z" />
<glyph unicode="q" horiz-adv-x="1105" d="M72 383q0 167 118 283t285 116q114 0 209 -62q87 -57 119 -136l6 184h225v-82h-155v-1116h139v-82h-397v82h172v520q0 20 3 41t5 41q-54 -124 -213 -172q-53 -16 -125 -16t-145.5 31.5t-127.5 86.5q-118 117 -118 281zM158 384q0 -67 24.5 -125t66.5 -101q90 -92 226 -92 q133 0 225 92q93 93 93 225q0 133 -93 224t-225 91q-135 0 -226 -91t-91 -223z" />
<glyph unicode="r" horiz-adv-x="704" d="M72 0v82h159v604h-147v82h217l2 -72q2 -35 4 -63.5t2 -63.5q47 100 138.5 156.5t185.5 58.5l-6 -84q-131 -4 -220 -82q-92 -79 -92 -198v-338h152v-82h-395z" />
<glyph unicode="s" horiz-adv-x="659" d="M106 59v152h78v-105q52 -38 168 -38q87 0 140 76q18 26 18 72t-26.5 74.5t-68.5 46t-91.5 31t-91.5 36.5q-99 53 -99 163q0 98 73 160q63 53 148 53t137 -23.5t74 -47.5v-152h-78v109q-35 30 -109 30h-22q-54 0 -84 -22q-53 -40 -53 -95t28.5 -80.5t70.5 -43t90.5 -32.5 t90.5 -40q97 -58 97 -168q0 -82 -56 -149q-67 -82 -192 -82q-103 0 -186 36q-33 15 -56 39z" />
<glyph unicode="t" horiz-adv-x="643" d="M72 684v84h178v500h86v-500h235v-84h-235v-602h168v-82h-254v684h-178z" />
<glyph unicode="u" horiz-adv-x="1103" d="M72 686v82h235v-532q4 -66 48 -115q45 -49 119 -51h12q67 0 120 20q58 22 101 58q94 79 94 200v338h-152v82h238v-694h145v-74h-221l-4 106v93q-41 -98 -132 -156.5t-204 -58.5t-178.5 63.5t-69.5 165.5v473h-151z" />
<glyph unicode="v" horiz-adv-x="1204" d="M72 686v82h379v-82h-134q185 -347 289 -577q78 174 287 577h-119v82h359v-82h-150q-94 -186 -188.5 -367.5t-188.5 -365.5q-124 238 -377 733h-157z" />
<glyph unicode="w" horiz-adv-x="1736" d="M72 686v82h366v-82h-119q72 -145 144 -289.5t137 -287.5q80 172 205 423l-41 154h-131v82h379v-82h-135q210 -422 280 -577q94 200 281 577h-119v82h346v-82h-141q-92 -186 -183.5 -367.5t-183.5 -365.5l-278 557l-279 -557l-367 733h-161z" />
<glyph unicode="x" horiz-adv-x="1030" d="M72 0v82h151l228 313l-215 291h-164v82h395v-82h-127l182 -248l178 248h-118v82h376v-82h-155l-230 -315l213 -289h172v-82h-395v82h117q-90 122 -176 242q-45 -59 -88 -121t-86 -121h119v-82h-377z" />
<glyph unicode="y" horiz-adv-x="1230" d="M72 686v82h379v-82h-129q76 -154 152.5 -304.5t146.5 -303.5q70 156 299 608h-119v82h358v-82h-149q-141 -281 -278.5 -558.5t-278.5 -557.5h131v-82h-396v82h174l213 426q-218 432 -346 690h-157z" />
<glyph unicode="z" horiz-adv-x="882" d="M72 0v84q154 154 291 301t290 301h-557v154h78v-72h598v-84q-154 -154 -291 -300t-291 -300h543v109h78v-193h-739z" />
<glyph unicode="{" horiz-adv-x="595" d="M61 563v94q88 4 131 99q31 68 31 178v352q0 168 61 214q29 22 65 25t77 3h96v-84h-106q-63 0 -85 -48t-22 -173v-291q0 -211 -85 -284q-23 -21 -48 -36q60 -34 85 -82q48 -97 48 -239v-289q0 -127 21.5 -175t85.5 -48h106v-82h-96q-43 0 -81 3t-65 28q-57 56 -57 254v305 q0 177 -81 247q-32 27 -81 29z" />
<glyph unicode="|" horiz-adv-x="491" d="M197 -475v1909h86v-1909h-86z" />
<glyph unicode="}" horiz-adv-x="655" d="M133 -221h107q63 0 84.5 48t21.5 175v336q0 167 92 242q23 20 41 32q-59 33 -84 80q-49 95 -49 240v291q0 125 -21.5 173t-84.5 48h-107v84h96q39 0 76 -2t65 -24q62 -48 62 -216v-307q0 -127 19.5 -186.5t51.5 -96.5t91 -39v-94q-100 -7 -140 -126q-22 -68 -22 -195 v-303q0 -170 -62 -217q-28 -21 -65 -23t-76 -2h-96v82z" />
<glyph unicode="~" horiz-adv-x="1001" d="M262 963q4 71 60 115q47 38 102 38q90 0 160 -74q54 -57 110 -57q72 0 106 51q13 21 17 54l53 -5q-4 -72 -59 -115q-48 -38 -103 -38t-90.5 19.5t-70.5 54.5q-50 57 -109 57q-70 0 -106 -51q-15 -21 -19 -54z" />
<glyph unicode="&#xa1;" horiz-adv-x="409" d="M139 993q0 -29 20.5 -48t45.5 -19t45 19.5t20 47.5q0 29 -20 48.5t-45 19.5t-45.5 -19.5t-20.5 -48.5zM162 -430h86v1196h-86v-1196z" />
<glyph unicode="&#xa2;" horiz-adv-x="788" d="M74 385q0 150 96 261q97 112 242 132v119h86v-113q137 -8 233 -88l-2 -2l2 -22v-178h-78v153q-78 51 -155 51v-628q100 6 178 67l53 -63q-98 -80 -231 -86v-127h-86v133q-145 20 -242 132q-96 111 -96 259zM160 384q0 -116 70.5 -200t181.5 -104v608q-111 -16 -182 -102 q-70 -86 -70 -202z" />
<glyph unicode="&#xa3;" horiz-adv-x="1175" d="M55 0v84h90q68 0 89 54q18 45 18 212v256h-133v84h133v334q0 143 101.5 208.5t257 65.5t230 -54t115.5 -136l-63 -39q-43 75 -83 100q-72 45 -206.5 45t-200 -54t-65.5 -148v-322h254v-84h-254v-338q0 -59 -7 -107t-38 -77h665v213h86v-297h-989z" />
<glyph unicode="&#xa4;" horiz-adv-x="1024" d="M203 489l71 72q-61 78 -61 176t55 172l-65 68l61 59l66 -65q78 61 176 61q97 0 176 -63l66 67l61 -61l-66 -64q57 -76 57.5 -173t-61.5 -175l70 -71l-59 -60l-72 70q-73 -56 -172 -56q-94 0 -170 54l-72 -70zM299 739q0 -88 61.5 -149.5t145.5 -61.5q89 0 148 62 q61 62 61 149q0 85 -61 147q-59 62 -148 62q-84 0 -145.5 -61.5t-61.5 -147.5z" />
<glyph unicode="&#xa5;" horiz-adv-x="1306" d="M27 1352v82h411v-82h-149q102 -170 205.5 -337t199.5 -339l25 -58h2l22 58l404 676h-148v82h412v-82h-160q-111 -184 -217 -365.5t-217 -363.5h244v-84h-291v-250h291v-84h-291v-123h160v-82h-412v82h152v123h-291v84h291v248q-2 0 -2 2h-289v84h244l-437 729h-159z" />
<glyph unicode="&#xa6;" horiz-adv-x="440" d="M182 240h86v-717h-86v717zM182 717v717h86v-717h-86z" />
<glyph unicode="&#xa7;" horiz-adv-x="1024" d="M274 722.5q0 57.5 15.5 102.5t45.5 80q69 80 163 80q35 0 84 -14q-170 269 -170 360q0 85 128 155q33 19 64 36l43 -72l-92 -55q-51 -30 -51 -65.5t24.5 -88.5t61.5 -117.5t79 -134t76 -127.5q35 -57 35 -114.5t-16 -101.5t-47 -80q-70 -81 -166 -81q-43 0 -80 15 q172 -283 172 -363q0 -87 -126 -155q-34 -19 -64 -35l-43 71l92 56q49 27 49 64q0 58 -65.5 165.5t-105.5 171.5t-64 109q-42 81 -42 138.5zM371 678q16 -53 60 -83t109.5 -30t111.5 52.5t46 105.5t-15 85t-40 56q-51 47 -125 47t-117 -53q-67 -83 -30 -180z" />
<glyph unicode="&#xa8;" horiz-adv-x="757" d="M141 1040q0 29 20.5 48.5t46.5 19.5t46 -19.5t20 -48.5t-20.5 -48t-46 -19t-46 19t-20.5 48zM479 1040q0 29 20.5 48.5t47.5 19.5t46 -19.5t19 -48.5t-19.5 -48t-45.5 -19q-27 0 -47.5 19t-20.5 48z" />
<glyph unicode="&#xa9;" horiz-adv-x="1624" d="M291 762q0 226 153 378q153 150 375 150q221 0 375 -150q154 -151 154 -378q0 -224 -154 -376q-152 -150 -375 -150t-375 150q-153 152 -153 376zM340 760q0 -201 140 -342q136 -135 338 -135q99 0 187.5 35.5t152.5 99.5q140 140 140 342q0 205 -140 344 q-138 139 -341 139q-198 0 -337 -139q-140 -140 -140 -344zM528 768q0 137 97 236q95 96 233 96q90 0 170 -45v-105h-37v80q-66 33 -129 33t-116.5 -23.5t-93.5 -63.5q-85 -85 -85 -210q0 -121 85 -206q87 -87 204 -87q70 0 150 41l20 -31q-76 -47 -156 -47t-140 26.5 t-105 71.5q-97 99 -97 234z" />
<glyph unicode="&#xaa;" horiz-adv-x="1198" d="M170 905q0 117 86 203q84 84 205 84q82 0 151 -44q60 -38 84 -97q0 36 6 129h50v-494h110v-59h-166v59q0 18 1 34.5t1 33.5q-37 -92 -153 -126q-39 -12 -91 -12t-105.5 23t-92.5 61q-86 85 -86 205zM233 905q0 -95 65 -161q64 -66 163 -66q98 0 163.5 65.5t65.5 161.5 q0 95 -66 162q-64 66 -163 66t-163 -66q-65 -67 -65 -162z" />
<glyph unicode="&#xab;" horiz-adv-x="1230" d="M240 489q88 84 175 165t175 165v-98l-228 -232l228 -233v-98zM590 489q88 84 175 165t175 165v-98q-132 -132 -227 -232l227 -233v-98z" />
<glyph unicode="&#xac;" horiz-adv-x="1144" d="M205 432v68h737v-197h-86v129h-651z" />
<glyph unicode="&#xad;" horiz-adv-x="614" d="M109 346v84h376v-84h-376z" />
<glyph unicode="&#xae;" horiz-adv-x="1640" d="M291 762q0 226 153 378q153 150 375 150q221 0 375 -150q154 -151 154 -378q0 -224 -154 -376q-152 -150 -375 -150t-375 150q-153 152 -153 376zM340 760q0 -201 140 -342q136 -135 338 -135q99 0 187.5 35.5t152.5 99.5q140 140 140 342q0 205 -140 344 q-138 139 -341 139q-198 0 -337 -139q-140 -140 -140 -344zM637 430v39h57v600h-57v39h203q72 0 118 -32q89 -62 89 -138q0 -151 -144 -184l133 -285h86v-39h-110l-152 322q-10 -2 -22 -2h-103v-281h96v-39h-194zM735 788h101q131 0 164 94q8 25 8 48q0 55 -49.5 97 t-122.5 42h-101v-281z" />
<glyph unicode="&#xaf;" horiz-adv-x="817" d="M174 995v62h471v-62h-471z" />
<glyph unicode="&#xb0;" horiz-adv-x="577" d="M104 1146q0 75 51.5 126t126.5 51t126 -51t51 -126t-51.5 -125t-126 -50t-126 50t-51.5 125zM166 1146q0 -48 34 -82t82 -34t82.5 34t34.5 82t-34.5 82t-82.5 34t-82 -34t-34 -82z" />
<glyph unicode="&#xb1;" horiz-adv-x="1073" d="M176 250v82h737v-82h-737zM176 760v84h326v325h86v-325h325v-84h-325v-328h-86v328h-326z" />
<glyph unicode="&#xb2;" horiz-adv-x="815" d="M207 1237q0 134 109 181q36 16 80 16t80 -15.5t60 -42.5q52 -58 52 -128t-24.5 -124.5t-64.5 -107.5t-88.5 -104.5t-95.5 -102.5h277v106h39v-147h-420q63 63 123.5 122.5t107.5 117.5q103 126 103 211q0 128 -97 165q-26 9 -61 9t-63.5 -16.5t-45.5 -40.5 q-28 -40 -28 -104.5t39 -107.5l-27 -24q-55 51 -55 137z" />
<glyph unicode="&#xb3;" horiz-adv-x="858" d="M180 840l31 30q50 -59 123 -59q69 0 120.5 51.5t51.5 118.5t-52 119q-49 49 -120 49q-35 0 -64 -21l185 265h-209v-62h-41v103h325l-178 -248q84 -8 140 -64q55 -55 55 -141q0 -88 -61.5 -149.5t-149.5 -61.5q-94 0 -156 70z" />
<glyph unicode="&#xb4;" horiz-adv-x="491" d="M205 981l184 272h88l-102 -136t-103 -136h-67z" />
<glyph unicode="&#xb5;" horiz-adv-x="1116" d="M59 686v82h238v-532q4 -66 48 -115t117.5 -51t131 19.5t100.5 58.5q94 79 94 200v338h-149v82h235v-694h146v-74h-221l-4 106v93q-41 -98 -132.5 -156.5t-201.5 -58.5t-164 73v-469h-86v1098h-152z" />
<glyph unicode="&#xb6;" horiz-adv-x="1093" d="M78 1200q0 142 96 238q98 98 238 98h608v-74h-189v-1388h189v-74h-275v1462h-247v-1462h-86v866q-141 0 -238 97q-96 96 -96 237z" />
<glyph unicode="&#xb7;" horiz-adv-x="337" d="M109 576q0 29 20.5 48t46 19t46 -19.5t20.5 -47.5q0 -29 -20.5 -48.5t-46.5 -19.5t-46 19.5t-20 48.5z" />
<glyph unicode="&#xb8;" horiz-adv-x="925" d="M240 -346q14 6 28.5 12t28.5 12q10 -39 43 -64.5t85 -25.5t87 39t35 93.5t-24.5 82t-55.5 48t-55.5 42t-24.5 60.5v47h59v-12q0 -48 21.5 -68t36.5 -28q110 -61 110 -161.5t-52 -155t-124 -54.5q-155 0 -198 133z" />
<glyph unicode="&#xb9;" horiz-adv-x="530" d="M133 1395v39h127v-576h76v-37h-191v37h76v537h-88z" />
<glyph unicode="&#xba;" horiz-adv-x="960" d="M186 903q0 59 22.5 112.5t62.5 93.5q85 85 204 85q123 0 208 -85t85 -204q0 -123 -85 -205q-88 -84 -208 -84q-116 0 -204 84q-85 82 -85 203zM248 905q0 -96 65.5 -161.5t161.5 -65.5q95 0 162 66q65 63 65 161q0 95 -65 160q-68 68 -162 68q-95 0 -161 -68 q-66 -67 -66 -160z" />
<glyph unicode="&#xbb;" horiz-adv-x="1230" d="M240 158v98l227 233q-142 147 -227 232v98l350 -330zM590 158v98l227 233l-227 232v98l350 -330z" />
<glyph unicode="&#xbc;" horiz-adv-x="1982" d="M268 1364v59h199v-886h117v-58h-293v58h115v827h-138zM571 -39q370 1006 570 1544h86l-570 -1544h-86zM1026 279l557 725v-662h148v-63h-148v-218h127v-61h-305v61h115v218h-494zM1157 342h363v473z" />
<glyph unicode="&#xbd;" horiz-adv-x="2189" d="M248 1364v59h198v-886h117v-58h-293v58h117v827h-139zM571 -39q370 1006 570 1544h86l-570 -1544h-86zM1167 672q0 118 72 198q75 84 203 84q121 0 198 -84q74 -82 74 -206q0 -184 -254 -458q-69 -75 -137 -147h395v152h58v-211h-602q92 90 178 176t152 168 q149 183 149 303q0 123 -74 193q-57 55 -128.5 55t-114 -23.5t-66.5 -56.5q-41 -58 -41 -149t55 -154l-35 -37q-82 69 -82 197z" />
<glyph unicode="&#xbe;" horiz-adv-x="2613" d="M301 516l49 49q79 -92 191 -92q110 0 190 80q78 78 78 186q0 112 -78 188q-79 77 -190 77q-58 0 -99 -33l289 415h-330v-96h-63v160h512l-281 -389q127 -8 218 -99q90 -90 90 -223q0 -134 -99 -233q-96 -96 -233 -96q-147 0 -244 106zM930 -39l569 1546h86l-569 -1546 h-86zM1434 279l557 725v-662h147v-63h-147v-218h127v-61h-308v61h117v218h-493zM1563 342h364v473z" />
<glyph unicode="&#xbf;" horiz-adv-x="874" d="M72 4q0 205 200 346q35 27 69 47.5t61 46.5q59 57 59 164v160h86v-199q0 -105 -81 -173q-36 -31 -82 -59t-104 -76q-122 -100 -122 -257q0 -135 90 -225t217 -90t208 61t116 170q9 -4 75 -26q-65 -193 -244 -264q-65 -25 -148 -25t-156.5 31.5t-127.5 85.5 q-116 116 -116 282zM438 1006q0 29 20.5 48t45.5 19t46 -19.5t21 -47.5q0 -29 -21.5 -48.5t-45.5 -19.5q-25 0 -45.5 19.5t-20.5 48.5z" />
<glyph unicode="&#xc0;" horiz-adv-x="1662" d="M72 0v82h157q452 1060 602 1417l601 -1417h159v-82h-395v82h150l-226 532h-577q-57 -135 -112.5 -267t-113.5 -265h150v-82h-395zM580 696h503l-233 555l-19 58q-4 -6 -9 -24.5t-18 -52.5t-41 -100.5t-58.5 -139t-62.5 -148.5t-62 -148zM586 1808h88q47 -68 92 -136 t92 -136h-68q-51 68 -102 136.5t-102 135.5z" />
<glyph unicode="&#xc1;" horiz-adv-x="1662" d="M72 0v82h157q452 1060 602 1417l601 -1417h159v-82h-395v82h150l-226 532h-577q-57 -135 -112.5 -267t-113.5 -265h150v-82h-395zM580 696h503l-233 555l-19 58q-4 -6 -9 -24.5t-18 -52.5t-41 -100.5t-58.5 -139t-62.5 -148.5t-62 -148zM801 1536l184 272h88l-102 -136 t-103 -136h-67z" />
<glyph unicode="&#xc2;" horiz-adv-x="1662" d="M72 0v82h157q452 1060 602 1417l601 -1417h159v-82h-395v82h150l-226 532h-577q-57 -135 -112.5 -267t-113.5 -265h150v-82h-395zM580 696h503l-233 555l-19 58q-4 -6 -9 -24.5t-18 -52.5t-41 -100.5t-58.5 -139t-62.5 -148.5t-62 -148zM585 1536q61 92 123 185.5 t123 185.5q61 -92 122.5 -185.5t123.5 -185.5h-68q-45 61 -89 123.5t-89 124.5l-178 -248h-68z" />
<glyph unicode="&#xc3;" horiz-adv-x="1662" d="M72 0v82h157q452 1060 602 1417l601 -1417h159v-82h-395v82h150l-226 532h-577q-57 -135 -112.5 -267t-113.5 -265h150v-82h-395zM526 1565q4 71 60 115q47 38 102 38q90 0 160 -74q54 -57 110 -57q72 0 106 51q13 21 17 54l53 -5q-4 -72 -59 -115q-48 -38 -103 -38 t-90.5 19.5t-70.5 54.5q-50 57 -109 57q-70 0 -106 -51q-15 -21 -19 -54zM580 696h503l-233 555l-19 58q-4 -6 -9 -24.5t-18 -52.5t-41 -100.5t-58.5 -139t-62.5 -148.5t-62 -148z" />
<glyph unicode="&#xc4;" horiz-adv-x="1662" d="M72 0v82h157q452 1060 602 1417l601 -1417h159v-82h-395v82h150l-226 532h-577q-57 -135 -112.5 -267t-113.5 -265h150v-82h-395zM580 696h503l-233 555l-19 58q-4 -6 -9 -24.5t-18 -52.5t-41 -100.5t-58.5 -139t-62.5 -148.5t-62 -148zM596 1634q0 29 20.5 48.5 t46.5 19.5t46 -19.5t20 -48.5t-20.5 -48t-46 -19t-46 19t-20.5 48zM934 1634q0 29 20.5 48.5t47.5 19.5t46 -19.5t19 -48.5t-19.5 -48t-45.5 -19q-27 0 -47.5 19t-20.5 48z" />
<glyph unicode="&#xc5;" horiz-adv-x="1662" d="M72 0v82h157q452 1060 602 1417l601 -1417h159v-82h-395v82h150l-226 532h-577q-57 -135 -112.5 -267t-113.5 -265h150v-82h-395zM580 696h503l-233 555l-19 58q-4 -6 -9 -24.5t-18 -52.5t-41 -100.5t-58.5 -139t-62.5 -148.5t-62 -148zM684 1712q0 61 44 105t106 44 q61 0 105 -44t44 -105t-44 -105.5t-105 -44.5t-105.5 44.5t-44.5 105.5zM748 1712q0 -35 25.5 -61.5t60.5 -26.5t61.5 26.5t26.5 61.5t-26.5 60.5t-61.5 25.5t-60.5 -25.5t-25.5 -60.5z" />
<glyph unicode="&#xc6;" horiz-adv-x="1589" d="M72 0v82h159l572 1352h686v-316h-82v234h-506v-588h508v-82h-508v-600h535v233h82v-315h-703v604h-274q-130 -311 -224 -522h150v-82h-395zM575 686h240v582q-51 -147 -115.5 -292t-124.5 -290z" />
<glyph unicode="&#xc7;" horiz-adv-x="1218" d="M72 718q0 149 57 283t156.5 233t232.5 157.5t309 58.5t351 -102v-396h-82v342q-140 74 -283 74t-261 -52t-206 -142q-188 -191 -188 -461q0 -133 50 -251t138 -206q190 -190 453 -190q176 0 329 90l48 -70q-167 -98 -361 -102v-18q0 -7 2 -9q10 -37 35 -52.5t58.5 -38 t52 -62.5t18.5 -76q0 -98 -52 -152.5t-123 -54.5q-153 0 -198 133l56 24q12 -39 43.5 -64.5t84.5 -25.5t87 39t34 93.5t-24.5 82t-54 48t-54 42t-24.5 60.5v33q-143 8 -268.5 68.5t-217.5 158.5t-145 227t-53 278z" />
<glyph unicode="&#xc8;" horiz-adv-x="1169" d="M72 0v82h147v1270h-147v82h997v-316h-82v234h-684v-588h686v-82h-686v-600h713v233h82v-315h-1026zM363 1808h88q47 -68 92 -136t92 -136h-68q-51 68 -102 136.5t-102 135.5z" />
<glyph unicode="&#xc9;" horiz-adv-x="1169" d="M72 0v82h147v1270h-147v82h997v-316h-82v234h-684v-588h686v-82h-686v-600h713v233h82v-315h-1026zM555 1536l184 272h88l-102 -136t-103 -136h-67z" />
<glyph unicode="&#xca;" horiz-adv-x="1169" d="M72 0v82h147v1270h-147v82h997v-316h-82v234h-684v-588h686v-82h-686v-600h713v233h82v-315h-1026zM368 1536q61 92 123 185.5t123 185.5q61 -92 122.5 -185.5t123.5 -185.5h-68q-45 61 -89 123.5t-89 124.5l-178 -248h-68z" />
<glyph unicode="&#xcb;" horiz-adv-x="1169" d="M72 0v82h147v1270h-147v82h997v-316h-82v234h-684v-588h686v-82h-686v-600h713v233h82v-315h-1026zM366 1634q0 29 20.5 48.5t46.5 19.5t46 -19.5t20 -48.5t-20.5 -48t-46 -19t-46 19t-20.5 48zM704 1634q0 29 20.5 48.5t47.5 19.5t46 -19.5t19 -48.5t-19.5 -48 t-45.5 -19q-27 0 -47.5 19t-20.5 48z" />
<glyph unicode="&#xcc;" horiz-adv-x="555" d="M19 1808h88q47 -68 92 -136t92 -136h-68q-51 68 -102 136.5t-102 135.5zM72 0v82h159v1270h-159v82h411v-82h-168v-1270h168v-82h-411z" />
<glyph unicode="&#xcd;" horiz-adv-x="555" d="M72 0v82h159v1270h-159v82h411v-82h-168v-1270h168v-82h-411zM256 1536l184 272h88l-102 -136t-103 -136h-67z" />
<glyph unicode="&#xce;" horiz-adv-x="557" d="M32 1536q61 92 123 185.5t123 185.5q61 -92 122.5 -185.5t123.5 -185.5h-68q-45 61 -89 123.5t-89 124.5l-178 -248h-68zM72 0v82h159v1270h-159v82h411v-82h-168v-1270h168v-82h-411z" />
<glyph unicode="&#xcf;" horiz-adv-x="555" d="M43 1634q0 29 20.5 48.5t46.5 19.5t46 -19.5t20 -48.5t-20.5 -48t-46 -19t-46 19t-20.5 48zM72 0v82h159v1270h-159v82h411v-82h-168v-1270h168v-82h-411zM381 1634q0 29 20.5 48.5t47.5 19.5t46 -19.5t19 -48.5t-19.5 -48t-45.5 -19q-27 0 -47.5 19t-20.5 48z" />
<glyph unicode="&#xd0;" horiz-adv-x="1294" d="M72 0v82h129v596h-111v84h111v590h-129v82h430q302 0 508 -194q98 -93 155.5 -226t57.5 -275.5t-42 -269.5t-136.5 -231.5t-245 -171t-367.5 -66.5h-360zM285 84h178q320 0 508 197q168 176 168 436q0 285 -188 464q-179 171 -449 171h-217v-590h424v-84h-424v-594z" />
<glyph unicode="&#xd1;" horiz-adv-x="1654" d="M72 0v82h166v1270h-166v82h221l1077 -1254l39 -53l-6 66v1159h-154v82h412v-82h-172v-1418l-1172 1354l7 -57v-1149h159v-82h-411zM530 1563q4 71 60 115q47 38 102 38q90 0 160 -74q54 -57 110 -57q72 0 106 51q13 21 17 54l53 -5q-4 -72 -59 -115q-48 -38 -103 -38 t-90.5 19.5t-70.5 54.5q-50 57 -109 57q-70 0 -106 -51q-15 -21 -19 -54z" />
<glyph unicode="&#xd2;" horiz-adv-x="1609" d="M72 715q0 152 57 286t156.5 233t232.5 157.5t285 58.5t286 -58.5t233 -157.5t157.5 -233.5t58.5 -285.5q0 -152 -58.5 -285t-157.5 -232.5t-233.5 -156.5t-285.5 -57q-152 0 -285 57t-232.5 156.5t-156.5 232.5t-57 285zM158 713q0 -135 50 -253t138 -205t205 -138 t250 -51t251.5 51t207.5 139q192 188 192 459q0 268 -190 461q-88 90 -207 141t-252 51t-251 -52t-206 -142q-188 -191 -188 -461zM562 1808h88q47 -68 92 -136t92 -136h-68q-51 68 -102 136.5t-102 135.5z" />
<glyph unicode="&#xd3;" horiz-adv-x="1609" d="M72 715q0 152 57 286t156.5 233t232.5 157.5t285 58.5t286 -58.5t233 -157.5t157.5 -233.5t58.5 -285.5q0 -152 -58.5 -285t-157.5 -232.5t-233.5 -156.5t-285.5 -57q-152 0 -285 57t-232.5 156.5t-156.5 232.5t-57 285zM158 713q0 -135 50 -253t138 -205t205 -138 t250 -51t251.5 51t207.5 139q192 188 192 459q0 268 -190 461q-88 90 -207 141t-252 51t-251 -52t-206 -142q-188 -191 -188 -461zM805 1536l184 272h88l-102 -136t-103 -136h-67z" />
<glyph unicode="&#xd4;" horiz-adv-x="1609" d="M72 715q0 152 57 286t156.5 233t232.5 157.5t285 58.5t286 -58.5t233 -157.5t157.5 -233.5t58.5 -285.5q0 -152 -58.5 -285t-157.5 -232.5t-233.5 -156.5t-285.5 -57q-152 0 -285 57t-232.5 156.5t-156.5 232.5t-57 285zM158 713q0 -135 50 -253t138 -205t205 -138 t250 -51t251.5 51t207.5 139q192 188 192 459q0 268 -190 461q-88 90 -207 141t-252 51t-251 -52t-206 -142q-188 -191 -188 -461zM567 1536q61 92 123 185.5t123 185.5q61 -92 122.5 -185.5t123.5 -185.5h-68q-45 61 -89 123.5t-89 124.5l-178 -248h-68z" />
<glyph unicode="&#xd5;" horiz-adv-x="1609" d="M72 715q0 152 57 286t156.5 233t232.5 157.5t285 58.5t286 -58.5t233 -157.5t157.5 -233.5t58.5 -285.5q0 -152 -58.5 -285t-157.5 -232.5t-233.5 -156.5t-285.5 -57q-152 0 -285 57t-232.5 156.5t-156.5 232.5t-57 285zM158 713q0 -135 50 -253t138 -205t205 -138 t250 -51t251.5 51t207.5 139q192 188 192 459q0 268 -190 461q-88 90 -207 141t-252 51t-251 -52t-206 -142q-188 -191 -188 -461zM510 1633q4 71 60 115q47 38 102 38q90 0 160 -74q54 -57 110 -57q72 0 106 51q13 21 17 54l53 -5q-4 -72 -59 -115q-48 -38 -103 -38 t-90.5 19.5t-70.5 54.5q-50 57 -109 57q-70 0 -106 -51q-15 -21 -19 -54z" />
<glyph unicode="&#xd6;" horiz-adv-x="1609" d="M72 715q0 152 57 286t156.5 233t232.5 157.5t285 58.5t286 -58.5t233 -157.5t157.5 -233.5t58.5 -285.5q0 -152 -58.5 -285t-157.5 -232.5t-233.5 -156.5t-285.5 -57q-152 0 -285 57t-232.5 156.5t-156.5 232.5t-57 285zM158 713q0 -135 50 -253t138 -205t205 -138 t250 -51t251.5 51t207.5 139q192 188 192 459q0 268 -190 461q-88 90 -207 141t-252 51t-251 -52t-206 -142q-188 -191 -188 -461zM577 1634q0 29 20.5 48.5t46.5 19.5t46 -19.5t20 -48.5t-20.5 -48t-46 -19t-46 19t-20.5 48zM915 1634q0 29 20.5 48.5t47.5 19.5t46 -19.5 t19 -48.5t-19.5 -48t-45.5 -19q-27 0 -47.5 19t-20.5 48z" />
<glyph unicode="&#xd7;" horiz-adv-x="1024" d="M250 59l116 115q56 57 113 117l-229 229l61 62l230 -230l231 230l59 -60l-231 -229l231 -232l-59 -61l-233 231l-230 -231z" />
<glyph unicode="&#xd8;" horiz-adv-x="1609" d="M72 713q0 154 57 288t156.5 233t232.5 157.5t285 58.5q243 0 436 -145l129 153q42 -36 57 -51l-127 -152q111 -100 175.5 -240.5t64.5 -296t-58.5 -288.5t-157.5 -232.5t-233.5 -156.5t-285.5 -57q-251 0 -449 153l-137 -162l-57 54l135 159q-104 100 -163.5 235.5 t-59.5 289.5zM158 713q0 -135 50 -254t140 -207q676 800 836 989q-177 127 -381 127q-133 0 -251 -52t-206 -142q-188 -191 -188 -461zM408 201q168 -135 391 -135q268 0 461 190q192 188 192 459q0 141 -56.5 263t-154.5 212z" />
<glyph unicode="&#xd9;" horiz-adv-x="1425" d="M72 1352v82h411v-82h-168v-883q0 -189 112 -299q106 -104 286 -104q175 0 285 104q112 107 112 299v883h-168v82h412v-82h-158v-889q0 -229 -140 -357q-131 -122 -343 -122q-216 0 -345 122q-139 129 -139 357v889h-157zM467 1808h88q47 -68 92 -136t92 -136h-68 q-51 68 -102 136.5t-102 135.5z" />
<glyph unicode="&#xda;" horiz-adv-x="1425" d="M72 1352v82h411v-82h-168v-883q0 -189 112 -299q106 -104 286 -104q175 0 285 104q112 107 112 299v883h-168v82h412v-82h-158v-889q0 -229 -140 -357q-131 -122 -343 -122q-216 0 -345 122q-139 129 -139 357v889h-157zM694 1536l184 272h88l-102 -136t-103 -136h-67z " />
<glyph unicode="&#xdb;" horiz-adv-x="1425" d="M72 1352v82h411v-82h-168v-883q0 -189 112 -299q106 -104 286 -104q175 0 285 104q112 107 112 299v883h-168v82h412v-82h-158v-889q0 -229 -140 -357q-131 -122 -343 -122q-216 0 -345 122q-139 129 -139 357v889h-157zM471 1536q61 92 123 185.5t123 185.5 q61 -92 122.5 -185.5t123.5 -185.5h-68q-45 61 -89 123.5t-89 124.5l-178 -248h-68z" />
<glyph unicode="&#xdc;" horiz-adv-x="1425" d="M72 1352v82h411v-82h-168v-883q0 -189 112 -299q106 -104 286 -104q175 0 285 104q112 107 112 299v883h-168v82h412v-82h-158v-889q0 -229 -140 -357q-131 -122 -343 -122q-216 0 -345 122q-139 129 -139 357v889h-157zM475 1636q0 29 20.5 48.5t46.5 19.5t46 -19.5 t20 -48.5t-20.5 -48t-46 -19t-46 19t-20.5 48zM813 1636q0 29 20.5 48.5t47.5 19.5t46 -19.5t19 -48.5t-19.5 -48t-45.5 -19q-27 0 -47.5 19t-20.5 48z" />
<glyph unicode="&#xdd;" horiz-adv-x="1527" d="M72 1352v82h411v-82h-149q205 -338 405 -676l25 -58h2l22 58l404 676h-148v82h412v-82h-160q-242 -411 -481 -809v-461h160v-82h-412v82h152v461q-110 181 -484 809h-159zM762 1536l184 272h88l-102 -136t-103 -136h-67z" />
<glyph unicode="&#xde;" horiz-adv-x="1036" d="M72 0v82h145v1270h-145v82h395v-82h-164v-256h221q156 0 284 -86q66 -45 111.5 -117t45.5 -172q0 -176 -113 -280.5t-324 -104.5h-225v-254h180v-82h-411zM303 420h211q195 0 290 102q75 80 75 199q0 116 -104 205q-103 88 -259 88h-213v-594z" />
<glyph unicode="&#xdf;" horiz-adv-x="1124" d="M72 0v82h151v647h-129v82h129v59q0 219 119 350q113 124 281 128q127 -4 215 -94t88 -216q0 -78 -42 -142.5t-108 -98.5q120 -41 199 -147q78 -105 78 -240q0 -175 -129 -302q-126 -124 -303 -124q-109 0 -201 51l35 74q74 -43 154.5 -43t144 27.5t110.5 74.5 q103 103 103 242q0 137 -103 238q-102 100 -243 100v86q92 0 155.5 55t63.5 145q0 89 -62 160q-60 70 -140.5 70t-138 -28t-100.5 -79q-92 -109 -92 -287v-870h-235z" />
<glyph unicode="&#xe0;" d="M72 385q0 164 117.5 281.5t285.5 117.5q114 0 209 -62q83 -54 117 -134l8 180h70v-686h151v-82h-229v82q0 25 1 48.5t1 45.5q-30 -76 -116 -131q-92 -59 -194 -59t-175.5 31.5t-127.5 84.5q-118 116 -118 283zM158 385q0 -130 91 -223q90 -92 226 -92q133 0 225 92 q93 93 93 223q0 132 -93 225q-92 92 -225 92q-136 0 -226 -92q-91 -93 -91 -225zM260 1253h88q47 -68 92 -136t92 -136h-68q-51 68 -102 136.5t-102 135.5z" />
<glyph unicode="&#xe1;" d="M72 385q0 164 117.5 281.5t285.5 117.5q114 0 209 -62q83 -54 117 -134l8 180h70v-686h151v-82h-229v82q0 25 1 48.5t1 45.5q-30 -76 -116 -131q-92 -59 -194 -59t-175.5 31.5t-127.5 84.5q-118 116 -118 283zM158 385q0 -130 91 -223q90 -92 226 -92q133 0 225 92 q93 93 93 223q0 132 -93 225q-92 92 -225 92q-136 0 -226 -92q-91 -93 -91 -225zM475 981l184 272h88l-102 -136t-103 -136h-67z" />
<glyph unicode="&#xe2;" d="M72 385q0 164 117.5 281.5t285.5 117.5q114 0 209 -62q83 -54 117 -134l8 180h70v-686h151v-82h-229v82q0 25 1 48.5t1 45.5q-30 -76 -116 -131q-92 -59 -194 -59t-175.5 31.5t-127.5 84.5q-118 116 -118 283zM158 385q0 -130 91 -223q90 -92 226 -92q133 0 225 92 q93 93 93 223q0 132 -93 225q-92 92 -225 92q-136 0 -226 -92q-91 -93 -91 -225zM288 981q61 92 123 185.5t123 185.5q61 -92 122.5 -185.5t123.5 -185.5h-68q-45 61 -89 123.5t-89 124.5l-178 -248h-68z" />
<glyph unicode="&#xe3;" d="M72 385q0 164 117.5 281.5t285.5 117.5q114 0 209 -62q83 -54 117 -134l8 180h70v-686h151v-82h-229v82q0 25 1 48.5t1 45.5q-30 -76 -116 -131q-92 -59 -194 -59t-175.5 31.5t-127.5 84.5q-118 116 -118 283zM158 385q0 -130 91 -223q90 -92 226 -92q133 0 225 92 q93 93 93 223q0 132 -93 225q-92 92 -225 92q-136 0 -226 -92q-91 -93 -91 -225zM178 963q4 71 60 115q47 38 102 38q90 0 160 -74q54 -57 110 -57q72 0 106 51q13 21 17 54l53 -5q-4 -72 -59 -115q-48 -38 -103 -38t-90.5 19.5t-70.5 54.5q-50 57 -109 57q-70 0 -106 -51 q-15 -21 -19 -54z" />
<glyph unicode="&#xe4;" d="M72 385q0 164 117.5 281.5t285.5 117.5q114 0 209 -62q83 -54 117 -134l8 180h70v-686h151v-82h-229v82q0 25 1 48.5t1 45.5q-30 -76 -116 -131q-92 -59 -194 -59t-175.5 31.5t-127.5 84.5q-118 116 -118 283zM158 385q0 -130 91 -223q90 -92 226 -92q133 0 225 92 q93 93 93 223q0 132 -93 225q-92 92 -225 92q-136 0 -226 -92q-91 -93 -91 -225zM260 1040q0 29 20.5 48.5t46.5 19.5t46 -19.5t20 -48.5t-20.5 -48t-46 -19t-46 19t-20.5 48zM598 1040q0 29 20.5 48.5t47.5 19.5t46 -19.5t19 -48.5t-19.5 -48t-45.5 -19q-27 0 -47.5 19 t-20.5 48z" />
<glyph unicode="&#xe5;" d="M72 385q0 164 117.5 281.5t285.5 117.5q114 0 209 -62q83 -54 117 -134l8 180h70v-686h151v-82h-229v82q0 25 1 48.5t1 45.5q-30 -76 -116 -131q-92 -59 -194 -59t-175.5 31.5t-127.5 84.5q-118 116 -118 283zM158 385q0 -130 91 -223q90 -92 226 -92q133 0 225 92 q93 93 93 223q0 132 -93 225q-92 92 -225 92q-136 0 -226 -92q-91 -93 -91 -225zM352 1106q0 61 44 105t106 44q61 0 105 -44t44 -105t-44 -105.5t-105 -44.5t-105.5 44.5t-44.5 105.5zM416 1106q0 -35 25.5 -61.5t60.5 -26.5t61.5 26.5t26.5 61.5t-26.5 60.5t-61.5 25.5 t-60.5 -25.5t-25.5 -60.5z" />
<glyph unicode="&#xe6;" horiz-adv-x="1214" d="M72 209q0 108 94 161q80 46 209 46h252v82q0 110 -41 152q-49 48 -193 48q-79 0 -176 -42q-27 -11 -41 -23l-53 57q69 62 197 85q40 7 75 7q152 0 221 -39q84 39 160 39t131.5 -21.5t101.5 -60.5q96 -80 134 -206l-430 -168v-64q0 -116 -54 -170q55 -27 132 -26 q129 0 215 86l53 -62q-112 -108 -268 -108q-102 0 -183 43q-76 -45 -181.5 -45t-164.5 11t-101 37q-89 54 -89 181zM158 209q0 -47 22.5 -75t57.5 -43q67 -28 159 -28q230 0 230 154v111h-208t-137.5 -11.5t-87 -36t-36.5 -71.5zM668 674q45 -48 45 -180v-78l321 125 q-35 72 -100.5 114.5t-121.5 42.5q-77 0 -144 -24z" />
<glyph unicode="&#xe7;" horiz-adv-x="800" d="M72 385q0 167 118 283t274 116t265 -88v-202h-78v153q-79 55 -161.5 55t-140.5 -24.5t-100 -67.5q-91 -93 -91 -225q0 -130 91 -223q90 -92 215.5 -92.5t211.5 67.5l53 -63q-27 -23 -93 -50q-124 -53 -151 -44q0 -56 59 -88q109 -61 109 -158.5t-45 -147.5 q-74 -81 -186 -57q-106 18 -141 125l55 24q12 -41 44 -65.5t84 -24.5t87 39t35 93.5t-24.5 82t-54.5 48t-54.5 42t-24.5 60.5v39q-151 16 -253 126q-103 112 -103 267z" />
<glyph unicode="&#xe8;" horiz-adv-x="903" d="M72 385q0 167 118 283t283 116q119 0 218 -80q98 -81 134 -206l-635 -252q35 -78 111 -127t188.5 -49t198.5 86q5 -6 53 -64q-115 -106 -268 -106q-165 0 -283 116t-118 283zM166 326l551 219q-35 70 -100.5 113.5t-142.5 43.5t-139.5 -31.5t-105.5 -83.5 q-92 -112 -63 -261zM220 1253h88q47 -68 92 -136t92 -136h-68q-51 68 -102 136.5t-102 135.5z" />
<glyph unicode="&#xe9;" horiz-adv-x="903" d="M72 385q0 167 118 283t283 116q119 0 218 -80q98 -81 134 -206l-635 -252q35 -78 111 -127t188.5 -49t198.5 86q5 -6 53 -64q-115 -106 -268 -106q-165 0 -283 116t-118 283zM166 326l551 219q-35 70 -100.5 113.5t-142.5 43.5t-139.5 -31.5t-105.5 -83.5 q-92 -112 -63 -261zM465 981l184 272h88l-102 -136t-103 -136h-67z" />
<glyph unicode="&#xea;" horiz-adv-x="903" d="M72 385q0 167 118 283t283 116q119 0 218 -80q98 -81 134 -206l-635 -252q35 -78 111 -127t188.5 -49t198.5 86q5 -6 53 -64q-115 -106 -268 -106q-165 0 -283 116t-118 283zM166 326l551 219q-35 70 -100.5 113.5t-142.5 43.5t-139.5 -31.5t-105.5 -83.5 q-92 -112 -63 -261zM225 981q61 92 123 185.5t123 185.5q61 -92 122.5 -185.5t123.5 -185.5h-68q-45 61 -89 123.5t-89 124.5l-178 -248h-68z" />
<glyph unicode="&#xeb;" horiz-adv-x="903" d="M72 385q0 167 118 283t283 116q119 0 218 -80q98 -81 134 -206l-635 -252q35 -78 111 -127t188.5 -49t198.5 86q5 -6 53 -64q-115 -106 -268 -106q-165 0 -283 116t-118 283zM166 326l551 219q-35 70 -100.5 113.5t-142.5 43.5t-139.5 -31.5t-105.5 -83.5 q-92 -112 -63 -261zM239 1040q0 29 20.5 48.5t46.5 19.5t46 -19.5t20 -48.5t-20.5 -48t-46 -19t-46 19t-20.5 48zM577 1040q0 29 20.5 48.5t47.5 19.5t46 -19.5t19 -48.5t-19.5 -48t-45.5 -19q-27 0 -47.5 19t-20.5 48z" />
<glyph unicode="&#xec;" horiz-adv-x="538" d="M29 1253h88q47 -68 92 -136t92 -136h-68q-51 68 -102 136.5t-102 135.5zM72 0v82h157v604h-157v82h243v-686h152v-82h-395z" />
<glyph unicode="&#xed;" horiz-adv-x="538" d="M72 0v82h157v604h-157v82h243v-686h152v-82h-395zM242 981l184 272h88l-102 -136t-103 -136h-67z" />
<glyph unicode="&#xee;" horiz-adv-x="538" d="M28 981q61 92 123 185.5t123 185.5q61 -92 122.5 -185.5t123.5 -185.5h-68q-45 61 -89 123.5t-89 124.5l-178 -248h-68zM72 0v82h157v604h-157v82h243v-686h152v-82h-395z" />
<glyph unicode="&#xef;" horiz-adv-x="538" d="M39 1040q0 29 20.5 48.5t46.5 19.5t46 -19.5t20 -48.5t-20.5 -48t-46 -19t-46 19t-20.5 48zM72 0v82h157v604h-157v82h243v-686h152v-82h-395zM377 1040q0 29 20.5 48.5t47.5 19.5t46 -19.5t19 -48.5t-19.5 -48t-45.5 -19q-27 0 -47.5 19t-20.5 48z" />
<glyph unicode="&#xf0;" horiz-adv-x="950" d="M72 383q0 170 114 283q119 120 283 120q154 4 254 -114q-70 265 -285 522l-129 -139l-57 53l139 149q-92 102 -190 183l57 57q98 -78 191 -178q31 35 62.5 67.5t59.5 67.5l58 -49q-101 -113 -131 -145q259 -314 350 -646q31 -114 31 -209.5t-31 -168t-84 -128.5 q-111 -116 -285 -120q-171 0 -287 114t-120 281zM158 385q0 -131 92 -223q90 -90 227 -90q136 0 227 94q89 93 89 223t-95 225q-91 91 -225 91q-133 0 -226 -95q-89 -91 -89 -225z" />
<glyph unicode="&#xf1;" horiz-adv-x="1116" d="M72 0v82h159v604h-147v82h217l2 -72q2 -35 4 -63.5t2 -63.5q41 96 132 155.5t205 59.5t179.5 -63.5t69.5 -165.5v-473h149v-82h-395v82h160v450q-4 66 -48 115t-117.5 51t-131 -19.5t-101.5 -58.5q-96 -79 -96 -200v-338h152v-82h-395zM264 947q4 71 60 115q47 38 102 38 q90 0 160 -74q54 -57 110 -57q72 0 106 51q13 21 17 54l53 -5q-4 -72 -59 -115q-48 -38 -103 -38t-90.5 19.5t-70.5 54.5q-50 57 -109 57q-70 0 -106 -51q-15 -21 -19 -54z" />
<glyph unicode="&#xf2;" horiz-adv-x="952" d="M74 384q0 83 31.5 156.5t86.5 127.5q117 118 283 118q168 0 287 -118q119 -117 119 -283q0 -167 -119 -283q-120 -116 -287 -116q-165 0 -283 116t-118 282zM158 385q0 -131 92 -223t223 -92q133 0 225 92q93 93 93 223t-93 223q-94 94 -225 94q-129 0 -223 -94 q-92 -92 -92 -223zM228 1253h88q47 -68 92 -136t92 -136h-68q-51 68 -102 136.5t-102 135.5z" />
<glyph unicode="&#xf3;" horiz-adv-x="952" d="M74 384q0 83 31.5 156.5t86.5 127.5q117 118 283 118q168 0 287 -118q119 -117 119 -283q0 -167 -119 -283q-120 -116 -287 -116q-165 0 -283 116t-118 282zM158 385q0 -131 92 -223t223 -92q133 0 225 92q93 93 93 223t-93 223q-94 94 -225 94q-129 0 -223 -94 q-92 -92 -92 -223zM473 981l184 272h88l-102 -136t-103 -136h-67z" />
<glyph unicode="&#xf4;" horiz-adv-x="952" d="M74 384q0 83 31.5 156.5t86.5 127.5q117 118 283 118q168 0 287 -118q119 -117 119 -283q0 -167 -119 -283q-120 -116 -287 -116q-165 0 -283 116t-118 282zM158 385q0 -131 92 -223t223 -92q133 0 225 92q93 93 93 223t-93 223q-94 94 -225 94q-129 0 -223 -94 q-92 -92 -92 -223zM235 981q61 92 123 185.5t123 185.5q61 -92 122.5 -185.5t123.5 -185.5h-68q-45 61 -89 123.5t-89 124.5l-178 -248h-68z" />
<glyph unicode="&#xf5;" horiz-adv-x="952" d="M74 384q0 83 31.5 156.5t86.5 127.5q117 118 283 118q168 0 287 -118q119 -117 119 -283q0 -167 -119 -283q-120 -116 -287 -116q-165 0 -283 116t-118 282zM158 385q0 -131 92 -223t223 -92q133 0 225 92q93 93 93 223t-93 223q-94 94 -225 94q-129 0 -223 -94 q-92 -92 -92 -223zM190 963q4 71 60 115q47 38 102 38q90 0 160 -74q54 -57 110 -57q72 0 106 51q13 21 17 54l53 -5q-4 -72 -59 -115q-48 -38 -103 -38t-90.5 19.5t-70.5 54.5q-50 57 -109 57q-70 0 -106 -51q-15 -21 -19 -54z" />
<glyph unicode="&#xf6;" horiz-adv-x="952" d="M74 384q0 83 31.5 156.5t86.5 127.5q117 118 283 118q168 0 287 -118q119 -117 119 -283q0 -167 -119 -283q-120 -116 -287 -116q-165 0 -283 116t-118 282zM158 385q0 -131 92 -223t223 -92q133 0 225 92q93 93 93 223t-93 223q-94 94 -225 94q-129 0 -223 -94 q-92 -92 -92 -223zM245 1040q0 29 20.5 48.5t46.5 19.5t46 -19.5t20 -48.5t-20.5 -48t-46 -19t-46 19t-20.5 48zM583 1040q0 29 20.5 48.5t47.5 19.5t46 -19.5t19 -48.5t-19.5 -48t-45.5 -19q-27 0 -47.5 19t-20.5 48z" />
<glyph unicode="&#xf7;" horiz-adv-x="1026" d="M139 426v84h738v-84h-738zM446 213q0 29 20.5 48.5t47.5 19.5t46.5 -19.5t19.5 -48.5t-19.5 -48.5t-46.5 -19.5t-47.5 19.5t-20.5 48.5zM446 725q0 29 20.5 48.5t47.5 19.5t46.5 -19.5t19.5 -48.5t-19.5 -48.5t-46.5 -19.5t-47.5 19.5t-20.5 48.5z" />
<glyph unicode="&#xf8;" horiz-adv-x="948" d="M72 385q0 167 118 283t283 116q124 0 223 -65l70 80l47 -43q-26 -29 -65 -78q59 -53 95 -130t36 -162t-32 -157.5t-87 -126.5q-120 -116 -271 -116t-260 82q-23 -29 -82 -99l-49 41l84 99q-110 110 -110 276zM158 385q0 -122 80 -211q102 121 201.5 239.5t201.5 239.5 q-75 49 -155.5 49t-137.5 -24.5t-99 -67.5q-91 -93 -91 -225zM285 131q79 -61 167.5 -61t146.5 24.5t101 67.5q93 93 93 223q0 137 -101 229q-10 -11 -407 -483z" />
<glyph unicode="&#xf9;" horiz-adv-x="1103" d="M72 686v82h235v-532q4 -66 48 -115t118.5 -51t132.5 19.5t101 58.5q94 79 94 200v338h-152v82h238v-694h145v-74h-221l-4 106v93q-41 -98 -132 -156.5t-204 -58.5t-178.5 63.5t-69.5 165.5v473h-151zM289 1253h88q47 -68 92 -136t92 -136h-68q-51 68 -102 136.5 t-102 135.5z" />
<glyph unicode="&#xfa;" horiz-adv-x="1103" d="M72 686v82h235v-532q4 -66 48 -115t118.5 -51t132.5 19.5t101 58.5q94 79 94 200v338h-152v82h238v-694h145v-74h-221l-4 106v93q-41 -98 -132 -156.5t-204 -58.5t-178.5 63.5t-69.5 165.5v473h-151zM473 981l184 272h88l-102 -136t-103 -136h-67z" />
<glyph unicode="&#xfb;" horiz-adv-x="1103" d="M72 686v82h235v-532q4 -66 48 -115t118.5 -51t132.5 19.5t101 58.5q94 79 94 200v338h-152v82h238v-694h145v-74h-221l-4 106v93q-41 -98 -132 -156.5t-204 -58.5t-178.5 63.5t-69.5 165.5v473h-151zM299 981q61 92 123 185.5t123 185.5q61 -92 122.5 -185.5 t123.5 -185.5h-68q-45 61 -89 123.5t-89 124.5l-178 -248h-68z" />
<glyph unicode="&#xfc;" horiz-adv-x="1103" d="M72 686v82h235v-532q4 -66 48 -115t118.5 -51t132.5 19.5t101 58.5q94 79 94 200v338h-152v82h238v-694h145v-74h-221l-4 106v93q-41 -98 -132 -156.5t-204 -58.5t-178.5 63.5t-69.5 165.5v473h-151zM299 1040q0 29 20.5 48.5t46.5 19.5t46 -19.5t20 -48.5t-20.5 -48 t-46 -19t-46 19t-20.5 48zM637 1040q0 29 20.5 48.5t47.5 19.5t46 -19.5t19 -48.5t-19.5 -48t-45.5 -19q-27 0 -47.5 19t-20.5 48z" />
<glyph unicode="&#xfd;" horiz-adv-x="1230" d="M72 686v82h379v-82h-129q76 -154 152.5 -304.5t146.5 -303.5q70 156 299 608h-119v82h358v-82h-149q-141 -281 -278.5 -558.5t-278.5 -557.5h131v-82h-396v82h174l213 426q-218 432 -346 690h-157zM611 981l184 272h88l-102 -136t-103 -136h-67z" />
<glyph unicode="&#xfe;" horiz-adv-x="1030" d="M33 -430h157v1884h-157v82h395v-82h-152v-764q-4 -27 -6 -53.5t-4 -50.5q28 75 119 134q92 60 192.5 60t174 -31.5t128.5 -84.5q117 -116 117 -281q0 -164 -117.5 -281.5t-285.5 -117.5q-114 0 -208 58q-87 54 -118 130q4 -40 8 -82v-520h168v-82h-411v82zM276 383 q0 -131 92 -225q90 -92 226 -92t226 92q91 93 91 226q0 67 -24.5 124t-66.5 99q-91 91 -226 91t-226 -91q-92 -92 -92 -224z" />
<glyph unicode="&#xff;" horiz-adv-x="1230" d="M72 686v82h379v-82h-129q76 -154 152.5 -304.5t146.5 -303.5q70 156 299 608h-119v82h358v-82h-149q-141 -281 -278.5 -558.5t-278.5 -557.5h131v-82h-396v82h174l213 426q-218 432 -346 690h-157zM387 1040q0 29 20.5 48.5t46.5 19.5t46 -19.5t20 -48.5t-20.5 -48 t-46 -19t-46 19t-20.5 48zM725 1040q0 29 20.5 48.5t47.5 19.5t46 -19.5t19 -48.5t-19.5 -48t-45.5 -19q-27 0 -47.5 19t-20.5 48z" />
<glyph unicode="&#x2000;" horiz-adv-x="953" />
<glyph unicode="&#x2001;" horiz-adv-x="1907" />
<glyph unicode="&#x2002;" horiz-adv-x="953" />
<glyph unicode="&#x2003;" horiz-adv-x="1907" />
<glyph unicode="&#x2004;" horiz-adv-x="635" />
<glyph unicode="&#x2005;" horiz-adv-x="476" />
<glyph unicode="&#x2006;" horiz-adv-x="317" />
<glyph unicode="&#x2007;" horiz-adv-x="317" />
<glyph unicode="&#x2008;" horiz-adv-x="238" />
<glyph unicode="&#x2009;" horiz-adv-x="381" />
<glyph unicode="&#x200a;" horiz-adv-x="105" />
<glyph unicode="&#x2010;" horiz-adv-x="614" d="M109 346v84h376v-84h-376z" />
<glyph unicode="&#x2011;" horiz-adv-x="614" d="M109 346v84h376v-84h-376z" />
<glyph unicode="&#x2012;" horiz-adv-x="614" d="M109 346v84h376v-84h-376z" />
<glyph unicode="&#x2013;" horiz-adv-x="1042" d="M205 362v84h616v-84h-616z" />
<glyph unicode="&#x2014;" horiz-adv-x="1433" d="M203 362v84h1028v-84h-1028z" />
<glyph unicode="&#x2018;" horiz-adv-x="335" d="M74 1456l67 -14q-28 -143 68 -234l-41 -41q-59 53 -85 129t-9 160z" />
<glyph unicode="&#x2019;" horiz-adv-x="335" d="M100 1208q96 91 68 234l68 14q16 -84 -10 -160t-85 -129z" />
<glyph unicode="&#x201a;" horiz-adv-x="299" d="M41 -59q96 91 68 233l65 14q16 -84 -8.5 -159.5t-83.5 -128.5q-23 18 -41 41z" />
<glyph unicode="&#x201c;" horiz-adv-x="509" d="M63 1456l66 -14q-28 -143 68 -234l-41 -41q-59 53 -84 129t-9 160zM276 1456l66 -14q-28 -143 68 -234l-41 -41q-59 53 -84 129t-9 160z" />
<glyph unicode="&#x201d;" horiz-adv-x="507" d="M63 1208q96 91 68 234l66 14q16 -84 -9 -160t-84 -129zM276 1208q96 91 68 234l66 14q16 -84 -9 -160t-84 -129z" />
<glyph unicode="&#x201e;" horiz-adv-x="567" d="M41 -59q96 91 68 233l65 14q16 -84 -8.5 -159.5t-83.5 -128.5q-23 18 -41 41zM254 -59q96 91 68 233l65 14q16 -84 -8.5 -159.5t-83.5 -128.5q-23 18 -41 41z" />
<glyph unicode="&#x2022;" horiz-adv-x="980" d="M307 613.5q0 77.5 53 132.5t130 55t131.5 -54.5t54.5 -132.5q0 -76 -54 -128q-56 -54 -133.5 -54t-129.5 52t-52 129.5z" />
<glyph unicode="&#x202f;" horiz-adv-x="381" />
<glyph unicode="&#x2039;" horiz-adv-x="802" d="M240 489q88 84 175 165t175 165v-98l-228 -232l228 -233v-98z" />
<glyph unicode="&#x203a;" horiz-adv-x="802" d="M240 158v98l227 233l-227 232v98l350 -330z" />
<glyph unicode="&#x205f;" horiz-adv-x="476" />
<glyph unicode="&#xe000;" horiz-adv-x="768" d="M0 0v768h768v-768h-768z" />
</font>
</defs>
</svg>
