<?xml version="1.0" standalone="no"?>
<!DOCTYPE svg PUBLIC "-//W3C//DTD SVG 1.1//EN" "http://www.w3.org/Graphics/SVG/1.1/DTD/svg11.dtd" >
<svg xmlns="http://www.w3.org/2000/svg">
<metadata></metadata>
<defs>
<font id="QuattrocentoRegular" horiz-adv-x="1562" >
<font-face units-per-em="2048" ascent="1638" descent="-410" />
<missing-glyph horiz-adv-x="491" />
<glyph unicode="&#xfb01;" horiz-adv-x="1249" d="M70 0l2 29l8 8q90 0 107.5 17t25.5 37t11 65q5 75 5 323v367h-151l-8 10v37l8 8l151 31v63q0 384 221 493q78 38 180 38q194 0 314 -84l10 -21l-24 -157h-53q-33 161 -267 161q-214 0 -238 -207q-7 -59 -7 -122v-164q486 0 686 18l12 -18q-14 -28 -14 -154l-2 -68 l-3 -122v-230q0 -45 1.5 -73.5t2.5 -48.5q5 -101 12 -131.5t23 -45.5q25 -22 107 -22l10 -10l4 -27l-4 -8l-209 8h-28l-211 -8l-2 8l2 29l8 8q90 0 109 18t24.5 41t8.5 60q7 86 7 178v324q0 70 -4 105.5t-7 45.5t-12 19q-20 18 -77 18h-444v-462q0 -112 6 -183.5t11 -99 t18 -39t33 -15.5t41 -6q44 -4 75 -4l10 -10l4 -27l-4 -8l-225 8h-49l-213 -8z" />
<glyph unicode="&#xfb02;" horiz-adv-x="1241" d="M70 0l2 29l8 8q90 0 107.5 17t25.5 37t11 65q5 75 5 323v367h-151l-8 10v37l8 8l151 31v63q0 257 95 387q107 144 333 144q78 0 142.5 -13.5t112.5 -13.5t128 17l13 -19q-15 -30 -15 -158q-6 -99 -6 -189v-763q0 -55 2 -94t3 -67.5t5 -68.5t8 -61q10 -47 67 -55 q30 -4 61 -4l10 -10l4 -27l-4 -8l-209 8h-29l-211 -8l-2 8l2 29l9 8q90 0 109 18t24.5 41t8.5 57t4 60.5t2 62t1 84.5v869q0 111 -66.5 153.5t-175 42.5t-164 -27.5t-83.5 -73.5q-43 -73 -43 -228v-164l260 12l10 -8v-80l-10 -10h-260v-462q0 -112 6 -183.5t11 -99t18 -39 t33 -15.5t41 -6q44 -4 75 -4l10 -10l4 -27l-4 -8l-225 8h-49l-213 -8z" />
<glyph horiz-adv-x="0" />
<glyph unicode="&#xd;" horiz-adv-x="518" />
<glyph horiz-adv-x="0" />
<glyph horiz-adv-x="0" />
<glyph unicode=" "  horiz-adv-x="491" />
<glyph unicode="&#x09;" horiz-adv-x="491" />
<glyph unicode="&#xa0;" horiz-adv-x="491" />
<glyph unicode="!" horiz-adv-x="503" d="M156 72q0 39 27.5 68.5t66.5 29.5t68.5 -29.5t29.5 -68.5t-29.5 -67t-68.5 -28t-66.5 28t-27.5 67zM160 1333l8 19l168 53l10 -6l-2 -60q-2 -23 -4 -45t-5 -60t-7 -100.5t-10 -165.5q-12 -227 -19 -616l-10 -14l-72 -33l-12 8q-13 641 -26 792.5t-15 179.5t-4 48z" />
<glyph unicode="&#x22;" horiz-adv-x="626" d="M109 1468l2 9l137 18l4 -8q-25 -157 -25 -402l-4 -8l-86 -20l-4 10q-5 250 -24 401zM381 1468l4 9l135 18l4 -8q-19 -117 -24 -402l-4 -8l-86 -20l-4 10q-5 240 -25 401z" />
<glyph unicode="#" horiz-adv-x="1273" d="M86 455l18 108h252l52 244h-263l19 106h266q50 243 66 418l4 8h155l4 -8q-54 -148 -114 -418h274q53 258 66 418l4 8h155l5 -8q-57 -155 -115 -418h258l-18 -106h-263l-51 -244h268l-18 -108h-274q-51 -258 -70 -447l-6 -8h-156l-2 8q45 125 119 447h-275 q-49 -247 -69 -447l-6 -8h-156l-2 8q45 125 119 447h-246zM471 563h274l52 244h-277z" />
<glyph unicode="$" horiz-adv-x="1091" d="M100 129l35 207h51l11 -10q20 -222 307 -230q4 78 4 156v381q-24 0 -125.5 43t-152.5 86q-109 91 -109 237q0 238 227 309q70 21 154 25q-4 96 -15 197l5 6h124l5 -6q-4 -28 -17 -197q170 -7 309 -65l9 -23l-29 -174h-57l-9 10q-7 78 -79 119q-50 29 -146 39 q-2 -66 -2 -124v-339q2 -2 42 -13.5t112.5 -42t129.5 -76.5q126 -100 126 -273q0 -166 -118 -263q-105 -87 -286 -100q3 -88 15 -198l-5 -7h-124l-5 7l15 194q-220 4 -393 96zM270 1028q0 -92 54.5 -138.5t183.5 -84.5v311q0 58 -2 123q-113 -10 -174.5 -64.5t-61.5 -146.5z M600 254q0 -78 2 -156q129 16 189.5 82t60.5 164q0 148 -155 220q-46 22 -97 40v-350z" />
<glyph unicode="%" horiz-adv-x="1603" d="M90 979q0 162 79 271q81 112 218 112q133 0 219 -113q78 -102 78 -262q0 -158 -77 -263q-85 -116 -226 -116q-136 0 -217 110q-74 100 -74 261zM190 982q0 -136 55.5 -216t141.5 -80q139 0 183 184q14 56 14 118t-14.5 116.5t-39.5 94.5q-55 85 -147 85q-91 0 -143 -85 q-50 -81 -50 -217zM252 39l2 8q184 220 266 332.5t137 189.5l246 338q76 104 158 219t153 244l11 8h155l-2 -8q-113 -125 -199.5 -242.5t-160.5 -220.5l-246 -338q-55 -78 -102 -143.5t-89 -126.5q-89 -129 -163 -252l-10 -8h-156zM926 348q0 162 78 272q80 111 218 111 q71 0 126 -30.5t94 -82.5q78 -102 78 -262q0 -159 -78 -263q-87 -116 -228 -116q-137 0 -216 110q-72 102 -72 261zM1026 351q0 -136 54.5 -216t142.5 -80t142 85t54 215t-54.5 214t-147.5 84q-89 0 -141 -85q-50 -81 -50 -217z" />
<glyph unicode="&#x26;" horiz-adv-x="1546" d="M109 352q0 200 156 337q50 44 114 69q-66 86 -94.5 150.5t-28.5 142.5q0 145 88 226t225 81q160 0 233 -86q27 -31 38 -76l6 -20l-25 -146h-67l-9 8q-10 121 -56 168t-130 47t-123 -52t-39 -125t24.5 -127t58.5 -101t96 -120q85 -102 391 -425q51 96 51 200.5t-76 225.5 q-47 -2 -67.5 -15.5t-36.5 -35.5l-29 14q0 42 37 80q73 76 158 76q18 0 50.5 -3t72.5 -6q107 -8 156.5 -8t84.5 8.5t62 45.5l26 -17q0 -6 -10 -31.5t-32 -52.5q-56 -73 -142 -73q-28 0 -199 12q62 -94 62 -244t-78 -266q78 -78 155.5 -123t188.5 -49l12 -8l6 -37l-6 -8 l-215 -8q-104 0 -233 131q-162 -131 -390 -131q-193 0 -323 94q-143 102 -143 278zM256 376q0 -81 30.5 -133.5t79.5 -86.5q99 -68 228 -68q168 0 289 109q-104 115 -211 227.5t-217 241.5q-94 -30 -149 -124q-50 -85 -50 -166z" />
<glyph unicode="'" horiz-adv-x="352" d="M109 1468l2 9l137 18l4 -8q-25 -157 -25 -402l-4 -8l-86 -20l-4 10q-5 250 -24 401z" />
<glyph unicode="(" horiz-adv-x="555" d="M82 670q0 262 108.5 495.5t305.5 413.5l30 -23v-10q-177 -219 -239 -475q-41 -160 -41 -401q0 -230 34 -371q70 -286 246 -506v-10l-30 -23q-197 176 -305.5 412t-108.5 498z" />
<glyph unicode=")" horiz-adv-x="555" d="M29 -207q244 306 271 693q7 100 7 181q0 241 -37 389q-68 273 -241 490v10l30 23q197 -178 305.5 -412.5t108.5 -496.5q0 -391 -241 -720q-76 -104 -173 -190l-30 23v10z" />
<glyph unicode="*" horiz-adv-x="899" d="M133 975l2 14q150 56 252 113q-110 58 -157.5 75t-86.5 29l-4 15q42 52 62 98l8 2q12 -10 24.5 -21.5t36.5 -29.5q56 -42 154 -113q-13 123 -51 273l6 8q18 -4 29 -4h50t38 4q2 -4 3 -4t3 -2q-21 -88 -21 -275q37 29 64.5 50.5t50.5 42.5q29 27 88 83q2 -6 10 -6 q28 -58 58 -96q-2 -4 -2 -8v-6q-107 -40 -248 -113q122 -66 171.5 -81t94.5 -28l4 -10q-43 -49 -59 -102l-11 -2q-93 79 -221 161q22 -215 35 -270l-8 -6q-20 2 -30 2h-45t-38 -2l-6 6q10 61 15.5 118.5t15.5 153.5q-43 -31 -74 -52t-55.5 -39.5t-45 -36t-44.5 -37.5l-11 2 q-22 53 -57 94z" />
<glyph unicode="+" horiz-adv-x="1013" d="M102 436l19 107h332v331h106v-331h352l-20 -107h-332v-352h-106v352h-351z" />
<glyph unicode="," horiz-adv-x="436" d="M104 -178q48 98 48 180q0 23 -11.5 45.5t-11.5 46.5t12.5 37.5t29.5 22.5q33 16 79 16q51 0 51 -88q0 -83 -65 -177q-53 -76 -107 -104h-12l-13 13v8z" />
<glyph unicode="-" horiz-adv-x="964" d="M137 436l19 107h673l-20 -107h-672z" />
<glyph unicode="." horiz-adv-x="444" d="M127 72q0 39 26.5 68.5t66.5 29.5t69.5 -29.5t29.5 -68.5t-29.5 -67t-69.5 -28t-66.5 28t-26.5 67z" />
<glyph unicode="/" horiz-adv-x="888" d="M82 -109q93 188 250 619l137 377q18 51 43 118.5t48 140.5q58 178 81 284l6 8h160l2 -8q-80 -145 -221 -543l-139 -377q-150 -404 -201 -619l-6 -8h-160v8z" />
<glyph unicode="0" horiz-adv-x="1323" d="M119 659q0 301 143 497q151 206 400 206t401 -206q143 -194 143 -482q0 -289 -141 -484q-70 -96 -174.5 -154.5t-238.5 -58.5t-233.5 55.5t-166.5 148.5q-133 187 -133 478zM279 674q0 -274 106 -430q106 -158 278 -158q88 0 161 46t122 126q103 168 103 414 q0 250 -107 414q-108 167 -289 167q-178 0 -278 -165q-96 -159 -96 -414z" />
<glyph unicode="1" horiz-adv-x="724" d="M86 1108v27l6 12q207 101 326 211h14l45 -19q-8 -64 -8 -157q-6 -99 -6 -189v-605q0 -245 27 -284q14 -22 31 -36t56 -22.5t70 -8.5l10 -10l5 -27l-5 -8l-208 8h-117l-209 -8l-4 8l4 29l6 8q104 0 133 31q43 38 47 82.5t6 70t3 59t1 80.5v589q0 97 -3 135t-5 71l-219 -55 z" />
<glyph unicode="2" horiz-adv-x="1097" d="M94 10v47q54 69 213 247q290 328 361 427t103 164.5t32 153t-77 146t-200.5 58.5t-208 -68.5t-92.5 -205.5l-8 -8h-70l-24 147l6 19q89 152 269 205q67 20 151 20q215 0 309 -95.5t94 -256.5q0 -96 -46 -176t-108 -165t-139 -173t-146 -168t-117 -140.5t-48 -83.5l4 -6 h160q123 0 196.5 3t114.5 19.5t60.5 48.5t34.5 91l10 12h55l-37 -264l-18 -20l-400 12h-202q-52 0 -211 -12z" />
<glyph unicode="3" horiz-adv-x="1114" d="M111 182l22 127h68l6 -8q4 -89 85 -149q90 -66 232 -66q168 0 252 98q68 79 68 195q0 122 -70 206q-79 95 -213 95h-65l-11 8l-6 57l10 11h37q113 0 184 85q64 78 64 191q0 221 -256 221q-195 0 -248 -161q-16 -50 -24 -113l-8 -8h-68l-25 147l5 19q76 148 258 205 q65 20 141 20t143.5 -19.5t119.5 -58.5q118 -88 118 -237q0 -115 -66 -205q-51 -71 -133 -103v-8q123 -23 195.5 -119t72.5 -205.5t-35.5 -185.5t-99.5 -130q-137 -114 -360 -114q-262 0 -391 187z" />
<glyph unicode="4" horiz-adv-x="1040" d="M43 502q122 213 242.5 392t168.5 250q75 110 142 199l133 19h16l25 -23q-8 -64 -8 -157q-6 -99 -6 -189v-440h174l8 -12l-23 -84l-14 -11h-145v-94q0 -122 6 -174.5t21.5 -74t31.5 -35.5t56 -22.5t71 -8.5l8 -10l4 -27l-4 -8l-207 8h-114l-232 -8l-2 8l8 29l9 8 q60 0 98.5 11t50.5 22q39 38 44 94q9 100 9 282h-530l-18 11zM197 553h417v352q0 174 -6 285q-133 -156 -316 -463q-56 -94 -95 -174z" />
<glyph unicode="5" horiz-adv-x="1087" d="M109 164l22 145h74l6 -8q4 -92 79 -153.5t218 -61.5q173 0 258 98q74 85 74 228q0 153 -103 226q-76 54 -227.5 54t-267.5 -67h-21l-55 30l-4 15l65 653l13 16h184q173 0 414 17l18 -17l31 -221l-13 -14h-36l-13 10q-8 45 -20 70.5t-47 37.5q-52 19 -279 19h-123 q-12 0 -12 -10l-41 -459q109 41 223.5 41t192.5 -19.5t139 -63.5q131 -96 131 -302q0 -212 -141 -334q-135 -117 -361 -117q-254 0 -376 166z" />
<glyph unicode="6" horiz-adv-x="1114" d="M137 621q0 313 89 497q120 244 384 244q137 0 252 -50q43 -18 74 -46l-31 -129h-37q-66 116 -243 116t-271 -159q-75 -128 -75 -322q0 -40 4 -82l6 -2q98 133 293 133q241 0 354 -151q78 -103 78 -260q0 -174 -100 -292q-118 -141 -334 -141q-235 0 -346 177 q-97 156 -97 467zM299 416q0 -208 141 -296q54 -34 138 -34q141 0 218.5 92t77.5 236q0 194 -138 266q-56 29 -144 29q-147 0 -220 -80t-73 -213z" />
<glyph unicode="7" horiz-adv-x="1048" d="M74 1118l30 221l17 17q349 -17 624 -17h281l10 -6l-10 -51q-64 -73 -393 -722q-132 -260 -215 -546l-10 -14q-95 0 -218 -12l-14 20q320 561 536 1004q93 190 93 221l-10 8h-279q-241 0 -292.5 -16.5t-67 -42t-23.5 -68.5l-12 -10h-37z" />
<glyph unicode="8" horiz-adv-x="1142" d="M119 381q0 125 60.5 224.5t187.5 142.5v8q-72 23 -125.5 86t-53.5 184q0 162 104.5 249t272.5 87q174 0 278 -86q111 -92 111 -252q0 -203 -178 -268v-8q123 -37 190 -148q58 -97 58 -195t-22.5 -170.5t-75.5 -128.5q-122 -129 -357 -129q-238 0 -353 127 q-97 108 -97 277zM274 371q0 -106 66 -187q80 -98 231 -98q152 0 232 91q65 74 65 190q0 127 -68 214q-82 105 -233 105q-149 0 -228 -108q-65 -88 -65 -207zM344 1036q0 -123 61.5 -186.5t165.5 -63.5q99 0 165 73q63 71 63 180q0 214 -227.5 214t-227.5 -217z" />
<glyph unicode="9" horiz-adv-x="1114" d="M100 930q0 173 100 292q118 140 335 140q235 0 345 -176q97 -156 97 -467q0 -497 -235 -673q-93 -69 -240 -69q-220 0 -324 97l31 129h37q69 -117 243 -117q184 0 272 154q75 133 75 350v16q0 23 -5 43l-6 2q-89 -114 -225 -129q-37 -4 -68 -4q-241 0 -354 150 q-78 104 -78 262zM240 926q0 -194 139 -266q55 -29 143 -29q147 0 219 80t72 213q0 209 -141 296q-54 33 -137 33q-139 0 -217 -92t-78 -235z" />
<glyph unicode=":" horiz-adv-x="464" d="M137 72q0 39 26.5 68.5t66.5 29.5t70 -29.5t30 -68.5t-30 -67t-70 -28t-66.5 28t-26.5 67zM137 835q0 40 26.5 68.5t66.5 28.5t70 -29t30 -68.5t-30 -67.5t-70 -28t-66.5 28t-26.5 68z" />
<glyph unicode=";" horiz-adv-x="477" d="M131 -178q47 96 47 180q0 23 -11 45.5t-11 46.5t12 37.5t30 22.5q33 16 78 16q52 0 52 -88q0 -83 -66 -177q-51 -74 -106 -104h-13l-12 13v8zM145 835q0 40 27 68.5t67 28.5t69.5 -29t29.5 -68.5t-29.5 -67.5t-69.5 -28t-67 28t-27 68z" />
<glyph unicode="&#x3c;" horiz-adv-x="847" d="M90 487v11q329 193 584 381l8 -9l18 -77v-15q-213 -121 -446 -280v-11q162 -112 446 -280v-14l-18 -78l-8 -9q-266 196 -584 381z" />
<glyph unicode="=" horiz-adv-x="999" d="M154 281l18 106h674l-21 -106h-671zM154 592l18 106h674l-21 -106h-671z" />
<glyph unicode="&#x3e;" horiz-adv-x="847" d="M147 193v14q273 162 447 280v11q-211 146 -447 280v15l19 77l8 9q266 -196 584 -381v-11q-338 -197 -584 -381l-8 9z" />
<glyph unicode="?" horiz-adv-x="868" d="M94 1274l4 18q48 78 243 106q48 7 87 7t97.5 -14.5t110.5 -50.5q124 -88 124 -263q0 -148 -147 -338q-93 -120 -122.5 -171.5t-31.5 -88.5l-8 -127l-13 -14l-71 -33l-13 8q-6 153 -6 217t43 134.5t94.5 140t94.5 143.5t43 145.5t-19.5 110.5t-49.5 64q-59 51 -125 51 t-110.5 -18.5t-78.5 -50.5q-67 -63 -80 -160l-4 -7h-37zM307 75q0 40 27.5 67.5t66.5 27.5t69 -27.5t30 -67.5t-30 -69t-69 -29t-66.5 29t-27.5 69z" />
<glyph unicode="@" horiz-adv-x="1478" d="M115 369q0 117 42 249t130 244.5t224 186t302 73.5t271.5 -45t173.5 -117q135 -140 135 -344q0 -188 -115 -322q-121 -142 -303 -142q-127 0 -145 88q-5 28 -5 61q-35 -70 -87 -110.5t-94 -40.5t-72.5 15t-55.5 46q-55 70 -55 173t34.5 177t90.5 126q120 110 266 110 q49 0 107.5 -16.5t93.5 -51.5l-76 -364q-8 -46 -8 -73.5t12 -41.5t57 -14t91.5 31.5t80.5 83.5q70 109 70 257q0 172 -106 292q-122 138 -340 138q-147 0 -260 -59t-189 -155.5t-115 -216.5t-39 -243.5t42 -216t112 -153.5q134 -115 350 -115q266 0 455 164l27 -20l-35 -70 q-107 -96 -308 -143q-75 -17 -178.5 -17t-212 41t-190.5 116q-178 163 -178 419zM596 369q0 -68 18.5 -99.5t46.5 -31.5t57.5 21.5t55.5 54.5q62 79 78 155l51 256q-12 12 -65.5 12t-102.5 -37.5t-79 -93.5q-60 -108 -60 -237z" />
<glyph unicode="A" horiz-adv-x="1382" d="M-39 -4l4 37l10 8q69 0 97 15q55 31 100 122q6 10 11 23.5t16.5 40t29 70.5t45 115t67.5 173t82 211t70.5 179.5t53 132t44 108.5t27.5 69l121 62h23l336 -930q46 -142 68 -190.5t36.5 -81.5t38 -60.5t47.5 -41.5q32 -17 103 -17l10 -8l6 -37l-4 -8l-203 12h-67l-232 -12 l-4 8l6 37l8 8q59 0 92 13.5t33 66.5t-31.5 138t-78.5 214l-35 98h-459l-35 -98q-47 -129 -78.5 -214t-31.5 -138t32.5 -66.5t92.5 -13.5l10 -8l6 -37l-4 -8l-219 12h-39l-203 -12zM467 659h391l-194 527z" />
<glyph unicode="B" horiz-adv-x="1202" d="M88 -4l6 37l10 8q82 0 104 15q46 32 56 122q4 62 4 275v605q0 145 -19.5 176.5t-35.5 43.5q-36 20 -109 20l-10 9l-6 36l4 9l189 -13h125l112 2h39q221 0 317.5 -85t96.5 -224q0 -201 -187 -297q312 -56 312 -350q0 -289 -299 -363q-92 -22 -203 -22h-272l-230 -12z M414 545q0 -304 5 -363t23.5 -71.5t49.5 -12.5h124q124 0 218 56q120 71 120 227q0 144 -100 223q-97 76 -246 76h-194v-135zM414 840q0 -47 4 -65.5t31 -18.5h61q66 0 125 8t106 43q45 29 74 83t29 145.5t-61.5 148.5t-174.5 57h-184q-10 -147 -10 -200v-201z" />
<glyph unicode="C" horiz-adv-x="1331" d="M111 664q0 304 175 493q190 205 513 205q238 0 415 -70l7 -18l-27 -187h-59l-7 9q-11 83 -119 124q-84 33 -223 33q-203 0 -309 -85q-203 -163 -203 -496q0 -282 158 -438q151 -150 390.5 -150t406.5 115l20 -23l-45 -92q-198 -107 -413 -107q-307 0 -493 190 q-187 191 -187 497z" />
<glyph unicode="D" horiz-adv-x="1503" d="M88 -4l6 37l10 8q82 0 104 15q46 32 56 122l4 152v670q0 111 -4 162q-6 81 -51 116q-36 20 -109 20l-10 9l-6 36l4 9l211 -13h117l295 9q309 0 497 -201q179 -191 179 -475t-175 -472q-188 -204 -514 -204l-272 4h-108l-230 -12zM414 473q0 -243 6 -295.5t26.5 -66 t73.5 -13.5h197q236 0 375 167q133 158 133 407q0 253 -137 408q-142 161 -381 161h-283q-10 -147 -10 -232v-536z" />
<glyph unicode="E" horiz-adv-x="1169" d="M88 -4l6 37l10 8q83 0 104 17t36.5 40t19.5 80l4 152v722q0 152 -19.5 182t-35.5 44q-26 20 -109 20l-10 9l-6 36l4 9l250 -13h336l344 9l10 -21l-8 -223h-51l-8 8q-4 47 -11.5 73.5t-41 39t-101.5 14.5t-190 2h-197l-4 -80q-6 -99 -6 -167v-244q61 2 122.5 2t111.5 2 q110 4 132 30q16 16 28.5 33t12.5 47l10 10l35 5l8 -5q-10 -118 -10 -168.5t10 -175.5l-8 -4l-37 4l-8 7q0 63 -41 106q-23 23 -101.5 26t-140.5 3h-124v-319q0 -119 10 -216q0 -39 41 -39h174q239 0 288.5 21.5t65 55.5t29.5 89l8 8h53l-36 -260l-17 -20l-295 8h-413 l-230 -12z" />
<glyph unicode="F" horiz-adv-x="1083" d="M88 -4l6 37l10 8q83 0 104 17t36.5 40t19.5 80l4 152v639l-4 192q-4 57 -19.5 80t-31.5 37q-26 20 -109 20l-10 9l-6 36l4 9l230 -13h356l344 9l10 -21l-8 -223h-51l-8 8q-4 47 -11.5 73.5t-41 39t-101.5 14.5t-190 2h-197l-4 -80q-6 -87 -6 -162v-249q61 2 122.5 2 t111.5 2q110 4 132 30q16 16 28.5 33t12.5 47l10 10l35 5l8 -5q-10 -118 -10 -168.5t10 -175.5l-8 -4l-37 4l-8 7q0 63 -41 106q-23 23 -101.5 26t-140.5 3h-124v-319q0 -219 22.5 -248t38.5 -44q26 -20 123 -20l10 -8l6 -37l-4 -8l-250 12h-38l-230 -12z" />
<glyph unicode="G" horiz-adv-x="1449" d="M111 664q0 305 182 495q194 203 532 203q151 0 263 -24.5t165 -45.5l4 -18l-34 -199h-58l-8 6q-29 172 -342 172q-231 0 -352 -96q-140 -111 -177 -343q-12 -71 -12 -174t40 -212t110 -184q145 -154 375 -154q130 0 201 17.5t85 26.5t14.5 32.5t0.5 48.5v53 q0 143 -21.5 177t-36.5 45q-26 18 -122 18l-11 8l-6 45l4 8l223 -12h62l180 12l4 -8l-4 -49l-10 -8q-59 0 -83 -34t-29 -105t-5 -179t6 -125l-8 -10q-234 -74 -421 -74t-319 54.5t-219 148.5q-173 187 -173 484z" />
<glyph unicode="H" horiz-adv-x="1556" d="M88 -4l6 37l10 8q83 0 104 17t36.5 40t19.5 80l4 152v639q0 230 -19.5 262.5t-35.5 46.5q-26 20 -109 20l-10 9l-6 36l4 9l230 -13h38l230 13l4 -9l-6 -36l-8 -9q-85 0 -106 -17t-35.5 -39.5t-17.5 -66t-4 -68t-2 -57t-1 -79.5v-213h729v211q0 233 -19.5 264t-36.5 45 q-26 20 -110 20l-8 9l-6 36l4 9l229 -13h39l229 13l4 -9l-6 -36l-10 -9q-82 0 -103.5 -17t-37 -39.5t-18.5 -66t-4 -68t-1 -57.5v-774q0 -143 19.5 -171.5t35.5 -43.5q26 -20 109 -20l10 -8l6 -37l-4 -8l-229 12h-39l-229 -12l-4 8l6 37l8 8q84 0 105 17t34.5 40t18 58.5 t5.5 55t2 48.5t1 70v338h-729v-315q0 -216 19.5 -246.5t35.5 -45.5q26 -20 111 -20l8 -8l6 -37l-4 -8l-230 12h-38l-230 -12z" />
<glyph unicode="I" horiz-adv-x="681" d="M88 -4l6 37l10 8q83 0 104 17t36.5 40t19.5 80l4 152v639q0 228 -19.5 261.5t-36.5 47.5q-24 20 -108 20l-10 9l-6 36l4 9l230 -13h38l230 13l4 -9l-6 -36l-8 -9q-85 0 -106 -17t-35.5 -39.5t-17.5 -66t-4 -68t-2 -57t-1 -79.5v-618q0 -216 19.5 -246.5t35.5 -45.5 q26 -20 111 -20l8 -8l6 -37l-4 -8l-230 12h-38l-230 -12z" />
<glyph unicode="J" horiz-adv-x="651" d="M35 -268l8 10q63 0 88 12q101 49 113 248q10 156 10 430v537q0 230 -19.5 262.5t-35.5 46.5q-26 20 -109 20l-10 9l-6 36l4 9l229 -13h39l229 13l5 -9l-7 -36l-8 -9q-84 0 -105 -17t-35.5 -39.5t-17.5 -66t-4.5 -68t-2.5 -57t-1 -79.5v-622l-2 -145v-48q0 -171 -71 -306 q-83 -161 -234 -168q-20 -1 -37 -1l-16 6z" />
<glyph unicode="K" horiz-adv-x="1343" d="M88 -4l6 37l10 8q83 0 104 17t36.5 40t19.5 80l4 152v722q0 152 -19.5 182t-35.5 44q-26 20 -109 20l-10 9l-6 36l4 9l230 -13h38l230 13l4 -9l-6 -36l-8 -9q-85 0 -106 -17t-35.5 -39.5t-17.5 -66t-4 -68t-2 -57t-1 -79.5v-260q129 82 252 205q241 241 241 305 q0 55 -71 69q-19 4 -39 8l-11 9v36l11 9q82 -12 180 -13h120.5t143.5 13l8 -9v-36l-8 -9q-27 -6 -72 -15t-70 -25.5t-51 -43t-62 -67.5q-130 -148 -204 -221l-164 -168q170 -258 377 -502q98 -112 145 -143q86 -57 214 -72l12 -8l4 -37l-4 -8l-192 -8q-103 0 -168 48 q-78 59 -209 240q-165 227 -287 408h-8q-72 -50 -88 -64v-259q0 -216 19.5 -246.5t35.5 -45.5q26 -20 111 -20l8 -8l6 -37l-4 -8l-230 12h-38l-230 -12z" />
<glyph unicode="L" horiz-adv-x="1056" d="M88 -4l6 37l10 8q83 0 104 17q60 49 60 202v709q0 233 -19.5 264t-35.5 45q-26 20 -109 20l-10 9l-6 36l4 9l230 -13h38l230 13l4 -9l-6 -36l-8 -9q-85 0 -106 -17t-36.5 -40.5t-18.5 -66t-4 -67t-1 -57.5v-696q0 -85 3 -131.5t5 -85.5t43 -39h174q229 0 266 21.5 t43 55.5t21 89l6 8h53l-37 -260l-16 -20l-240 8h-413l-230 -12z" />
<glyph unicode="M" horiz-adv-x="1845" d="M51 -4l6 37l13 8q79 0 108 20q16 14 33.5 37t23 58.5t7.5 55t5 48.5q10 98 15 172l29 416q11 130 12.5 184.5t2.5 79.5t1 66q0 62 -51 100q-26 20 -109 20l-10 9l-6 36l4 9l230 -13h71q62 0 94 9l11 -7q5 -66 135 -411l139 -379q48 -136 115 -289q6 10 34.5 79t70.5 170 t89 222t90 237q98 263 113 369l10 9q36 -9 70 -9h74l229 13l4 -9l-6 -36l-10 -9q-85 0 -105 -16t-37.5 -40.5t-17.5 -67t1 -67t2 -57.5q2 -64 13 -200l25 -377q6 -74 9 -120t6 -76.5t6.5 -52t9.5 -62.5q8 -57 55 -101q26 -20 111 -20l10 -8l6 -37l-2 -8l-229 12h-39 l-230 -12l-6 8l6 37l8 8q86 0 104.5 17t32 40t13.5 58v56q0 68 -13 251.5t-22.5 311.5t-15.5 200t-9.5 102.5t-5.5 50.5q-22 -58 -88.5 -223.5t-111.5 -278l-89 -222.5q-94 -238 -153 -377h-96l-410 1097q-5 -52 -7.5 -90.5t-5.5 -80.5t-7 -103l-29 -377q-6 -70 -8 -115 t-4 -77.5t-2 -54.5v-48q0 -57 13 -80q28 -49 58.5 -53t63.5 -4l8 -8l6 -37l-4 -8l-196 12h-39l-228 -12z" />
<glyph unicode="N" horiz-adv-x="1527" d="M88 -4l6 37l10 8q80 0 101.5 15t37 39t19.5 60.5t5 56t1 48.5v792q0 135 -18.5 173.5t-36.5 52.5q-26 20 -109 20l-10 9l-6 36l4 9l197 -13h71q61 0 95 9l10 -7q15 -55 73 -153q125 -211 233 -383t223.5 -330t148.5 -205l2 56v643q0 233 -19.5 264t-35.5 45 q-26 20 -111 20l-8 9l-6 36l4 9l190 -13h96q102 0 193 13l2 -9l-4 -36l-10 -9q-86 0 -109 -20q-16 -14 -29.5 -36.5t-16.5 -66t-4 -68t-2 -57t-1 -79.5v-482q0 -325 14 -497l-16 -10l-127 8l-21 24l-729 1092l-2 -92v-606q0 -262 18.5 -297t36.5 -49q30 -21 113 -21l10 -8 l7 -37l-5 -8l-213 12h-38l-230 -12z" />
<glyph unicode="O" d="M113 659q0 303 176 497q186 206 494 206q159 0 284 -55.5t210 -150.5q175 -196 175 -482q0 -288 -174 -484q-190 -213 -510 -213q-310 0 -490 204q-165 185 -165 478zM272 674q0 -272 142 -430q140 -158 371 -158q118 0 213.5 46t161.5 126q134 164 134 414 q0 254 -139 414q-144 167 -385 167q-235 0 -370 -165q-128 -156 -128 -414z" />
<glyph unicode="P" horiz-adv-x="1124" d="M88 -4l6 37l10 8q82 0 104 15q46 32 56 122l4 152v728q0 143 -19.5 174.5t-35.5 45.5q-36 20 -109 20l-10 9l-6 36l4 9l189 -13h125l112 2h41q386 0 475 -219q27 -69 27 -169.5t-49 -177.5t-126 -121q-133 -76 -358 -76h-114v-117q0 -220 5 -281t21.5 -84.5t28.5 -34.5 q36 -20 111 -20l8 -8l6 -37l-4 -8l-230 12h-38l-230 -12zM414 743q0 -53 10 -62q15 -13 68 -13h108q172 0 246 77.5t74 217t-85 209t-233 69.5h-178q-10 -147 -10 -200v-298z" />
<glyph unicode="Q" d="M113 659q0 303 176 497q186 206 493 206q310 0 495 -205q175 -194 175 -481q0 -278 -162 -470q-178 -211 -473 -226q152 -3 347 -76q73 -27 143.5 -49.5t157 -22.5t151.5 39l6 -4l8 -17l-2 -8q-106 -125 -246 -125q-70 0 -143.5 29t-153 63.5t-165.5 63.5t-172.5 29 t-157 -19.5t-105.5 -42.5l-6 2l-10 29l2 6q45 31 121 62.5t164 37.5q-309 4 -482 206q-161 189 -161 476zM272 674q0 -272 142 -430q140 -158 371 -158q118 0 213.5 46t161.5 126q134 164 134 414q0 254 -139 414q-144 167 -385 167q-235 0 -370 -165q-128 -156 -128 -414z " />
<glyph unicode="R" horiz-adv-x="1306" d="M88 -4l6 37l10 8q82 0 104 15q46 32 56 122l4 152v635q0 224 -19.5 261.5t-35.5 51.5q-36 20 -109 20l-10 9l-6 36l4 9l189 -13h125l112 2h41q385 0 475 -209q27 -65 27 -146t-32 -145.5t-81 -110.5q-84 -79 -231 -116q303 -422 429 -506q80 -52 208 -67l12 -8l4 -37 l-4 -8q-45 -2 -102.5 -5t-100 -3t-82 12t-75.5 38q-51 37 -162 173q-6 6 -36 48t-72 101q-63 88 -173 248h-149v-120q0 -239 5 -300t21.5 -84.5t28.5 -34.5q36 -20 111 -20l8 -8l6 -37l-4 -8l-230 12h-38l-230 -12zM414 766q0 -53 10 -63q14 -13 68 -13h108q170 0 245 79 t75 208t-85 196.5t-233 67.5h-178q-10 -147 -10 -200v-275z" />
<glyph unicode="S" horiz-adv-x="1128" d="M113 104l34 220h52l10 -13q19 -241 346 -241q160 0 241 72.5t81 189.5q0 178 -227 258q-64 22 -138 47t-144.5 56.5t-122.5 74.5q-112 93 -112 244q0 181 127 271q111 79 309 79q222 0 369 -70l8 -22l-28 -183h-58l-10 11q-7 94 -108 137q-72 31 -190 31t-193.5 -58.5 t-75.5 -165.5t83 -164q62 -42 198.5 -84.5t210 -73t131.5 -78.5q128 -105 128 -284q0 -194 -150 -294q-128 -87 -343 -87q-223 0 -420 101z" />
<glyph unicode="T" horiz-adv-x="1206" d="M33 1104l14 233l8 19l13 6q61 -23 405 -23h258q341 0 406 23l12 -6l8 -19l17 -233h-50l-8 8q-13 103 -82 117q-59 12 -332 12h-22q-4 -118 -4 -391v-497q0 -220 23.5 -248.5t39.5 -43.5q23 -20 131 -20l11 -8l6 -37l-4 -8l-221 12h-117l-219 -12l-4 8l6 37l10 8 q108 0 131 20q16 14 34.5 37t21.5 58.5t4 55t2 48.5t1 70v518q0 234 -6 393h-22q-276 0 -314 -8t-47 -14q-45 -25 -55 -107l-8 -8h-47z" />
<glyph unicode="U" horiz-adv-x="1480" d="M53 1343l4 9l230 -13h39l229 13l4 -9l-6 -36l-8 -9q-84 0 -105.5 -17t-36 -39.5t-17.5 -66t-4 -68t-2 -57t-1 -79.5v-459q0 -221 99.5 -317.5t275.5 -96.5t276 96.5t100 317.5v459q0 232 -20 262.5t-37 44.5q-23 20 -108 20l-11 9l-6 36l4 9l207 -13h45l219 13l4 -9 l-6 -36l-8 -9q-84 0 -105 -17t-36 -39.5t-18 -64t-4 -66t-2 -59t-1 -83.5v-514q0 -213 -121 -339q-132 -139 -372 -139q-271 0 -404 139q-117 123 -117 339v597q0 151 -19 181.5t-36 44.5q-26 20 -108 20l-11 9z" />
<glyph unicode="V" horiz-adv-x="1380" d="M-25 1343l2 9l203 -13h70l231 13l4 -9l-6 -36l-10 -9q-59 0 -92 -13t-33 -66.5t32 -138.5t79 -214l139 -377q39 -106 68.5 -191t54.5 -146q75 192 127 337l139 377q47 129 79 214t32 138t-33 66.5t-92 13.5l-11 9l-4 36l4 9l218 -13h38l203 13l4 -9l-6 -36l-10 -9 q-68 0 -97 -15q-54 -29 -100 -122q-6 -16 -17 -40.5t-38 -92.5q-103 -257 -171.5 -432.5t-98 -252.5t-57.5 -145q-58 -146 -76 -198l-107 -23h-25l-333 930q-23 61 -38.5 102.5t-26.5 70.5q-46 119 -74.5 153.5t-53.5 47.5q-32 17 -102 17l-10 9z" />
<glyph unicode="W" horiz-adv-x="2244" d="M-25 1343l2 9l203 -13h70l231 13l4 -9l-6 -36l-10 -9q-59 0 -92 -13t-33 -66.5t32 -138.5t79 -214l139 -377q39 -106 68.5 -191t54.5 -146q75 192 127 337l139 377q29 80 52.5 141.5t39.5 110.5q-38 124 -107 160q-30 16 -75 20l-10 9l-4 36l2 9l198 -13h68l221 13l4 -9 l-6 -36l-10 -9q-53 0 -85 -22q-59 -39 -59 -88q0 -20 8.5 -50t36 -101.5t62.5 -170.5l139 -377q39 -104 70 -191t53 -146q75 192 127 337l139 377q47 129 79 214t32 138t-33 66.5t-92 13.5l-8 9l-6 36l4 9l217 -13h39l202 13l5 -9l-7 -36l-10 -9q-68 0 -97 -15 q-56 -30 -99 -122q-6 -16 -17.5 -40.5t-38 -92t-77 -193.5t-107 -270.5t-86 -221.5t-57.5 -145q-58 -146 -76 -198l-107 -23h-24l-357 988q-31 -76 -121 -310.5t-120.5 -311.5t-58.5 -145q-58 -146 -76 -198l-107 -23h-25l-333 930q-23 61 -38.5 102.5t-26.5 70.5 q-46 119 -74.5 153.5t-53.5 47.5q-32 17 -102 17l-10 9z" />
<glyph unicode="X" horiz-adv-x="1355" d="M-8 0v27l16 14q88 12 127 34q63 37 121 113q125 164 352 488q-33 45 -73.5 104.5t-86.5 125.5q-90 130 -145 214q-74 114 -101 136q-42 33 -132 42l-17 9v36l13 9q94 -12 180 -13h88q103 0 227 13l10 -9v-36l-10 -9q-146 -7 -143 -59q0 -19 26.5 -65.5t56 -97t58.5 -96.5 q86 -136 131 -200q123 158 234 379q12 30 12 56.5t-13.5 40.5t-33 21t-44 11t-46.5 10l-11 9v36l11 9q77 -13 188 -13h119q104 0 186 13l8 -9v-36l-8 -9q-87 -12 -127 -41q-59 -43 -125 -135t-107.5 -153.5t-73.5 -106.5t-57.5 -84t-56.5 -84q72 -104 134.5 -197.5 t111.5 -165t80 -117.5t46 -62.5t32.5 -34t42.5 -31.5q55 -31 154 -45l18 -14v-29l-12 -12q-131 16 -215 16h-82q-83 0 -232 -16l-10 12v31l10 12q47 4 86 23.5t39 48.5t-28.5 84t-70.5 123q-75 123 -179 270q-239 -311 -299 -430q-17 -34 -7.5 -57t24.5 -33q28 -17 128 -29 l12 -12v-29l-12 -12q-71 12 -217 12h-96q-115 0 -201 -12z" />
<glyph unicode="Y" horiz-adv-x="1253" d="M-16 1307v36l10 9q139 -17 182 -17h86q66 0 230 17l8 -9v-36l-8 -9q-92 -4 -119 -23t-27 -33q0 -22 21 -52q74 -135 139 -256t143 -254q206 347 267 508q8 22 8 43t-14.5 33t-36 18t-47 8t-48.5 8l-8 9v36l8 9q77 -13 189 -13h118q107 0 189 13l8 -9v-36l-8 -9 q-90 -12 -129 -36.5t-63.5 -53t-69.5 -96t-89 -137.5t-79 -128.5t-62.5 -107.5t-45.5 -79q-38 -64 -38 -119v-191q0 -114 5.5 -171.5t20.5 -80t32 -37.5q23 -20 108 -20l10 -8l7 -37l-4 -8l-230 12h-39l-231 -12l-2 8l4 37l10 8q85 0 109 20q16 14 31.5 37t18.5 58.5t4 55 t2 48.5t1 70v182q0 57 -16.5 93t-40 78t-61.5 105.5t-79 131t-84 134t-69 108.5q-36 59 -78 98q-37 29 -127 38z" />
<glyph unicode="Z" horiz-adv-x="1257" d="M74 10v47q185 185 567 789q163 258 219 385l-10 10h-291q-236 0 -287 -15.5t-69.5 -41t-26.5 -70.5l-12 -10h-37l-12 14l32 221l17 17q368 -17 663 -17h136q91 0 167 17l17 -23l-10 -51q-74 -78 -209 -264.5t-223.5 -317.5t-164.5 -248q-168 -263 -196 -348l10 -6h164 q182 0 291 3t168 19.5t83.5 48.5t39.5 91l12 12h55l-37 -264l-18 -20l-479 12h-328q-52 0 -211 -12z" />
<glyph unicode="[" horiz-adv-x="569" d="M164 -186q24 206 24 618v670q0 232 -24 424l4 8h156l211 12l2 -8l-5 -37l-10 -8q-120 0 -141.5 -17t-36.5 -40q-22 -32 -24.5 -166.5t-2.5 -282.5v-665q0 -254 5.5 -324.5t20.5 -93.5t27.5 -33t31 -14t40.5 -7q38 -4 80 -4l10 -8l5 -37l-2 -8l-211 12h-156z" />
<glyph unicode="\" horiz-adv-x="888" d="M80 1430v8h160l6 -8q37 -168 96 -330t78 -213l135 -377q140 -391 252 -619l-2 -8h-160l-6 8q-47 196 -201 619l-137 377q-128 363 -221 543z" />
<glyph unicode="]" horiz-adv-x="569" d="M33 -199l4 37l10 8q117 0 148 21q16 14 31.5 36.5t18.5 64t4 92.5t2 118.5t1 143.5v665q0 282 -6 369q-4 57 -19.5 79.5t-27.5 33t-30.5 14.5t-40.5 6q-44 4 -81 4l-10 8l-4 37l2 8l211 -12h155l5 -8q-25 -158 -25 -324v-770q0 -417 25 -618l-5 -9h-155l-211 -12z" />
<glyph unicode="^" horiz-adv-x="712" d="M117 1161l6 15l225 202h17l225 -202l6 -15l-12 -39l-15 -6l-213 125l-213 -125l-14 6z" />
<glyph unicode="_" horiz-adv-x="948" d="M31 0h887v-106h-887v106z" />
<glyph unicode="`" horiz-adv-x="448" d="M0 1325q0 25 18.5 45.5t53.5 22.5l370 -207l7 -15l-13 -41l-16 -6l-412 158q-8 18 -8 43z" />
<glyph unicode="a" horiz-adv-x="1015" d="M76 228.5q0 95.5 34.5 151.5t90 91t128 55.5t141.5 29.5q115 15 198 15h28q-4 134 -25 194q-42 116 -210 116q-139 0 -201 -75q-24 -30 -29 -77l-8 -6h-45l-18 151l6 13q37 45 218 77q54 9 118 9t127 -19.5t109 -58.5q100 -85 100 -233l-9 -502q7 -82 31 -101 q22 -22 113 -22l8 -8l2 -29l-2 -8q-74 8 -158 8t-147 -6l-12 20l18 152l-2 6q-96 -132 -238 -178q-51 -17 -110 -17t-108.5 23t-81.5 60q-66 73 -66 168.5zM221 260q0 -78 45 -124t102.5 -46t100.5 14.5t81 37.5q82 48 114 94q19 32 22 59l10 205h-18q-457 0 -457 -240z" />
<glyph unicode="b" horiz-adv-x="1226" d="M45 0l2 29l8 8q91 0 110 18t25 41q4 19 11 82l4 182v753q0 253 -13.5 275.5t-26.5 37.5q-23 28 -108 28l-8 8v27l8 8h37q129 0 180 8l72 11l12 -19q-16 -32 -16 -111v-108l-2 -162v-141q0 -118 -6 -193l6 -4q59 86 145 140.5t199 54.5t198 -41t140 -108 q108 -133 108 -337q0 -255 -152 -393q-129 -117 -296 -117q-220 0 -336 191l-6 -4q0 -81 27 -150l-15 -14h-94l-211 -8zM340 360q16 -86 91 -167q96 -103 235 -103q149 0 234 123q75 109 75 268q0 72 -18.5 139.5t-56.5 119.5q-84 116 -230 116q-143 0 -245 -104 q-42 -43 -63.5 -89.5t-21.5 -78.5v-224z" />
<glyph unicode="c" horiz-adv-x="1042" d="M92 471q0 222 154 363q152 139 370 139q98 0 185.5 -24.5t132.5 -49.5l6 -18l-22 -158h-44l-8 6q0 119 -177 145q-44 7 -107.5 7t-132 -34t-113.5 -91q-88 -110 -88 -277q0 -168 96 -277q106 -120 299 -120q70 0 155 21.5t146 54.5l21 -21l-31 -57q-91 -63 -236 -92 q-53 -11 -128.5 -11t-167 36t-160.5 101q-150 141 -150 357z" />
<glyph unicode="d" horiz-adv-x="1226" d="M96 463q0 255 152 395q125 115 295 115q224 0 342 -193l4 8q-4 47 -4 92v233q0 253 -13.5 275.5t-26.5 37.5q-23 28 -108 28l-8 8v27l8 8h37q128 0 180 8l72 11l12 -19q-14 -28 -14 -158l-2 -129l-2 -235v-447q0 -220 6 -317.5t12 -119t22 -35.5q22 -19 109 -19l9 -8 l4 -29l-4 -8q-74 8 -157 8t-147 -6l-14 20q7 28 21 148l-2 8q-57 -86 -141.5 -139.5t-197 -53.5t-197.5 41t-139 109q-108 136 -108 336zM252 469q0 -72 18.5 -139.5t55.5 -119.5q81 -116 231 -116q138 0 238 98q41 41 64.5 86.5t25.5 77.5v228q-11 87 -87 171 q-95 105 -237 105q-154 0 -237 -122q-72 -108 -72 -269z" />
<glyph unicode="e" horiz-adv-x="1075" d="M94 471q0 222 138 363q138 139 339 139q236 0 359 -181q49 -73 67 -192l-14 -49l-33 -14l-456 -5h-242q-2 -14 -2 -27v-58.5t22.5 -116t70.5 -123.5t124 -85t210.5 -32t244.5 62l20 -13v-37l-20 -22q-49 -39 -139.5 -71t-200 -32t-198.5 36t-154 101q-136 139 -136 357z M262 616h80q187 0 434 13q45 3 45 43q0 23 -8 43q-23 78 -84.5 122t-141.5 44t-132 -21.5t-91 -57.5q-81 -74 -102 -186z" />
<glyph unicode="f" horiz-adv-x="681" d="M70 0l2 29l8 8q90 0 107.5 17t25.5 37t11 65q5 75 5 323v367h-151l-8 10v37l8 8l151 31v117q0 219 82 348t240 129q106 0 217 -62l10 -20l-24 -158h-54q-8 66 -60 102.5t-114.5 36.5t-94.5 -23.5t-47 -62.5q-19 -49 -19 -190v-217l260 12l10 -8v-80l-10 -10h-260v-462 q0 -112 6 -183.5t11 -99t18 -39t33 -15.5t41 -6q44 -4 75 -4l10 -10l4 -27l-4 -8l-225 8h-49l-213 -8z" />
<glyph unicode="g" horiz-adv-x="1036" d="M70 -227q0 86 56 152.5t144 92.5l2 7q-98 39 -98 114q0 53 43 86t92 45v9q-111 41 -160 129t-49 179t27 158.5t77 117.5q108 108 281 108q112 0 197 -39q189 4 301 37l10 -8l-14 -113l-10 -10l-187 8l-2 -6q53 -43 78 -113t25 -136.5t-26 -128t-75 -107.5 q-108 -101 -293 -101l-81 2q-35 -14 -52.5 -38.5t-17.5 -43.5q0 -44 117 -55l198 -21q228 -27 297 -164q25 -49 25 -110q0 -135 -107 -230q-120 -102 -364 -102q-210 0 -327 87q-107 79 -107 194zM197 -206.5q0 -76.5 86 -125.5t233 -49q215 0 290 103q25 34 25 81t-23.5 78 t-61.5 51q-51 26 -181 43l-137 15q-104 -4 -173 -66q-58 -54 -58 -130.5zM246 610q0 -108 62 -184q71 -86 184 -86q59 0 103 20.5t75 55.5q63 73 63 176q0 110 -65 194q-72 95 -187 95q-108 0 -177 -89q-58 -74 -58 -182z" />
<glyph unicode="h" horiz-adv-x="1222" d="M41 0l2 29l8 8q90 0 109.5 18t24.5 41t8.5 57t4.5 60.5t2 62t1 84.5v753q0 253 -13.5 275.5t-26.5 37.5q-23 28 -108 28l-8 8v27l8 8h37q128 0 180 8l72 11l12 -19q-12 -24 -12 -85v-73l-6 -364q0 -169 -6 -213l6 -4q51 90 137 152.5t213 62.5q204 0 301 -156 q33 -53 40 -117q9 -81 9 -243v-289q0 -81 24.5 -103t56.5 -25t65 -3l6 -8l4 -29l-4 -8q-70 8 -155 8t-148 -6l-15 20q27 91 27 453q0 133 -16 199q-20 96 -84 143t-140 47t-134 -29.5t-99 -71.5t-64.5 -88t-23.5 -77v-178q0 -243 11 -290.5t28 -62.5q25 -22 106 -22l11 -10 l4 -27l-4 -8l-209 8h-29l-211 -8z" />
<glyph unicode="i" horiz-adv-x="565" d="M66 0l2 29l8 8q90 0 109 18t24.5 41t8.5 60q7 86 7 178v324q0 70 -5 113q-7 63 -27 86q-29 32 -115 32l-8 8v29l8 6h37q128 0 180 8l72 10l12 -18q-14 -28 -14 -154l-3 -68l-2 -122v-230q0 -75 2.5 -109t3.5 -51.5t4 -49.5q7 -68 29 -89q25 -22 107 -22l10 -10l4 -27 l-4 -8l-209 8h-28l-211 -8zM172 1292q0 41 27.5 71t68.5 30t71 -30t30 -71t-30 -68.5t-71 -27.5t-68.5 27.5t-27.5 68.5z" />
<glyph unicode="j" horiz-adv-x="516" d="M-23 -489l9 10q41 0 72.5 7t70.5 49q63 68 68 296l4 271l2 217v124q0 47 -1 102.5l-2 111t-3 83.5q-3 48 -27 72q-20 25 -51 30t-64 5l-8 8v29l8 6h37q128 0 180 8l72 10l10 -18q-4 -8 -5 -28.5t-3 -45.5q-4 -48 -4 -84l-4 -180v-602q0 -305 -152 -452q-68 -66 -151 -71 q-17 -1 -37 -1l-16 4zM150 1292q0 41 27.5 71t68.5 30t70.5 -30t29.5 -71t-29.5 -68.5t-70.5 -27.5t-68.5 27.5t-27.5 68.5z" />
<glyph unicode="k" horiz-adv-x="1075" d="M41 0l2 29l8 8q90 0 109.5 18t24.5 41t8.5 57t4.5 60.5t2 62t1 84.5v753q0 253 -13.5 275.5t-26.5 37.5q-23 28 -108 28l-8 8v27l8 8h37q128 0 180 8l72 11l12 -19q-12 -24 -12 -85v-73l-6 -364v-488l244 226q4 4 19 18t31.5 29.5t31.5 31.5l22 21q18 20 18 37 q0 37 -94 49l-8 8v25l8 8l78 -8t80 -4h57q37 0 160 12l6 -8v-29l-10 -10q-20 -4 -49 -9t-55.5 -21.5t-60.5 -42t-68 -54.5q-88 -76 -123 -113l-84 -78q10 -14 26.5 -39.5t48.5 -64.5l183 -225q29 -35 56.5 -71t58.5 -65q74 -70 153 -73l6 -8l4 -29l-4 -8q-53 -6 -164 -6 q-57 0 -108 51l-39 39q-33 33 -68 74l-164 210q-60 81 -98 117q-45 -41 -62.5 -60.5t-31.5 -33.5q0 -111 5 -188.5t11 -98.5q13 -48 69 -55q30 -4 60 -4l11 -10l4 -27l-4 -8l-209 8h-29l-211 -8z" />
<glyph unicode="l" horiz-adv-x="552" d="M49 0l2 29l8 8q91 0 110 18t24.5 41t8.5 57t4 60.5t2 62t1 84.5v753q0 253 -13.5 275.5t-26.5 37.5q-23 28 -108 28l-8 8v27l8 8h37q129 0 181 8l73 11l13 -19q-15 -30 -15 -158q-6 -99 -6 -189v-622q0 -220 6 -315.5t12 -116.5q12 -48 67 -55q30 -4 60 -4l11 -10l4 -27 l-4 -8l-209 8h-29l-211 -8z" />
<glyph unicode="m" horiz-adv-x="1892" d="M66 0l2 29l8 8q90 0 109 18t24.5 41t8.5 60q7 86 7 178v324q0 70 -5 113q-7 63 -27 86q-29 32 -115 32l-8 8v29l8 6h37q128 0 180 8l72 10l12 -18q-21 -63 -21 -160l7 -4q56 99 107 136q99 69 214 69q182 0 278 -126q33 -44 52 -106q62 111 113 152q100 80 223 80 q199 0 298 -156q54 -87 57 -241q1 -60 1 -119v-297q0 -78 31 -101q22 -22 112 -22l9 -8l4 -29l-4 -8q-74 8 -157 8t-147 -6l-14 20q25 84 25 400v63q0 143 -18.5 218t-81 118t-130 43t-115.5 -21.5t-85 -52.5q-69 -59 -101 -145q6 -67 6 -180v-297q0 -70 33 -101 q25 -22 107 -22l10 -10l4 -27l-4 -8l-209 8h-29l-211 -8l-4 8l4 29l9 8q90 0 109 18t23.5 41t7.5 59t4 81t2 91t2 87t1 62v49q0 102 -19.5 173.5t-81 114.5t-134 43t-128 -29.5t-95.5 -71.5t-61.5 -88t-21.5 -79v-230q0 -75 2.5 -109t3.5 -51.5t4 -49.5q7 -68 29 -89 q25 -22 107 -22l10 -10l4 -27l-4 -8l-209 8h-28l-211 -8z" />
<glyph unicode="n" horiz-adv-x="1247" d="M66 0l2 29l8 8q90 0 109 18t24.5 41t8.5 60q7 86 7 178v324q0 70 -5 113q-7 63 -27 86q-29 32 -115 32l-8 8v29l8 6h37q128 0 180 8l72 10l12 -18q-15 -42 -21 -162l7 -4q125 207 346 207q127 0 220 -68q101 -73 122 -217q8 -71 8 -231l2 -297q7 -82 27 -100 q27 -23 116 -23l6 -8l5 -29l-5 -8q-70 8 -154.5 8t-148.5 -6l-14 20q27 91 27 453q0 129 -18.5 212t-82 130t-139.5 47t-134.5 -28.5t-99 -70.5t-64.5 -88t-24 -79v-306q0 -55 3.5 -79.5t6.5 -56.5q7 -68 29 -89q25 -22 107 -22l10 -10l4 -27l-4 -8l-209 8h-28l-211 -8z" />
<glyph unicode="o" horiz-adv-x="1193" d="M92 475q0 207 134 349q140 149 371 149q120 0 214 -42t159 -113q132 -144 132 -353q0 -204 -126 -338q-140 -150 -376 -150q-244 0 -384 156q-124 139 -124 342zM246 479q0 -162 92 -285q102 -137 261 -137q85 0 150.5 35t108.5 92q86 116 86 281q0 162 -92 285 q-102 137 -262 137q-166 0 -261 -129q-83 -114 -83 -279z" />
<glyph unicode="p" horiz-adv-x="1224" d="M43 -526l2 30l8 7q85 0 107 19t27.5 40.5t8.5 55.5t4 59.5t2 60.5t1 82v729q0 243 -13 267q-30 53 -66 59t-69 6l-8 8v29l8 6h37q128 0 180 8l72 10l12 -18q-18 -36 -18 -144l6 -2q59 84 144 135.5t196 51.5t196 -41t140 -108q108 -133 108 -337q0 -255 -152 -393 q-129 -117 -296 -117q-98 0 -188.5 46.5t-153.5 150.5l-6 -4q6 -87 6 -176v-140q0 -208 17 -284q5 -23 22 -35q24 -24 106 -24l11 -9l4 -28l-4 -6l-209 6h-29l-211 -6zM338 367q17 -94 87 -171q96 -106 239 -106q149 0 234 123q75 109 75 268q0 72 -18.5 139.5t-56.5 119.5 q-84 116 -230 116q-140 0 -239 -99q-86 -86 -91 -165v-225z" />
<glyph unicode="q" horiz-adv-x="1222" d="M96 463q0 255 152 395q125 115 295 115q215 0 338 -182l6 4q0 14 -2 34.5l-4 41t-6.5 37t-6.5 24.5l13 18l71 -10q49 -8 178 -8h37l9 -6v-29l-9 -8q-33 0 -62.5 -5t-43.5 -20q-29 -33 -32 -71.5t-5 -69.5t-3 -70t-1 -93v-570q0 -217 6 -307.5t11 -113t22 -34.5 q24 -24 106 -24l11 -9l4 -28l-4 -6l-209 6h-29l-211 -6l-2 6l2 30l8 7q87 0 113 24q16 12 21 34.5t8.5 56.5t4.5 59.5t2 60.5t1 82v194q0 86 6 152l-6 4q-132 -201 -340 -201q-222 0 -341 150q-108 136 -108 336zM252 469q0 -72 18.5 -139.5t55.5 -119.5q81 -116 231 -116 q139 0 239 100q84 84 89 164v226q-11 87 -87 171q-95 105 -237 105q-154 0 -237 -122q-72 -108 -72 -269z" />
<glyph unicode="r" horiz-adv-x="835" d="M66 0l2 29l8 8q90 0 109 18t25 41q15 65 15 238v324q0 70 -5 113q-7 63 -27 86q-29 32 -115 32l-8 8v29l8 6h37q128 0 180 8l72 10l12 -18q-23 -82 -23 -205l6 -2q53 104 96 152q86 96 179 96q37 0 83 -11.5t62 -29.5l17 -19l-25 -157h-67q-6 29 -32 52t-78 23t-95 -29.5 t-75 -74.5q-67 -94 -67 -186v-183q0 -74 2 -106l4 -46q1 -13 1 -28q11 -99 26.5 -113t35.5 -18t41 -6q44 -4 75 -4l10 -10l4 -27l-4 -8l-225 8h-49l-213 -8z" />
<glyph unicode="s" horiz-adv-x="899" d="M102 70l31 211h47l6 -9q0 -98 61.5 -154.5t178.5 -56.5q184 0 232 117q12 31 12 54.5t-2 47t-16 46.5q-35 57 -126 82l-196 49q-224 53 -224 241q0 132 100 206q93 69 240 69q96 0 177.5 -24.5t126.5 -49.5l6 -18l-23 -158h-43l-8 6q0 84 -88 131q-67 35 -159.5 35 t-137.5 -51t-45 -106.5t31.5 -97.5t124.5 -65l145 -32q150 -31 219 -119q47 -60 47 -135.5t-26.5 -131t-76.5 -95.5q-108 -85 -284 -85q-178 0 -326 74z" />
<glyph unicode="t" horiz-adv-x="667" d="M51 856v39l8 8l148 29q0 113 -10 293l14 12l29 2q85 11 104 23l18 -9q-22 -106 -22 -321l266 12l10 -8v-80l-10 -10h-266l-2 -444l-2 -199q0 -80 30.5 -106.5t68.5 -26.5q86 0 159 43l18 -15l-18 -57q-91 -64 -209 -64q-190 0 -190 205q0 18 2 75.5t4 143.5q6 258 6 445 h-148z" />
<glyph unicode="u" horiz-adv-x="1226" d="M39 897v29l6 6h37q128 0 180 8l72 10l12 -18q-12 -24 -12 -85v-73l-6 -309q0 -133 16 -199q20 -96 84 -143t137 -47t126.5 25.5t93.5 62.5q81 75 100 155v267q0 121 -6 174q-8 75 -28 97q-28 32 -114 32l-8 8v29l8 6h37q129 0 178 8l72 10l12 -18q-12 -24 -12 -85v-73 l-2 -66l-2 -120v-230l6 -198q7 -83 31 -101q22 -22 112 -22l9 -8l4 -29l-4 -8q-74 8 -158 8t-148 -6l-12 20q18 82 25 158l-6 4q-123 -199 -340 -199q-202 0 -293 140q-56 86 -56 231v10q0 58 -2 117l-2 167v149q0 30 -26 65q-29 33 -115 33z" />
<glyph unicode="v" horiz-adv-x="1054" d="M-2 903v29l8 8q105 -12 146 -12h79q43 0 166 12l9 -8v-25l-9 -8q-104 -9 -104 -80q0 -62 141 -432l101 -266l98 235q14 35 38.5 94.5t48.5 127.5q60 163 60 241q0 45 -32.5 60.5t-73.5 19.5l-8 8v25l8 8q80 -12 149 -12h84q25 0 142 12l8 -8v-29l-13 -10q-69 -8 -108 -74 q-105 -193 -212 -505q-13 -38 -19 -52l-105 -262l-129 -10l-20 10l-123 328q-14 43 -54.5 139t-65.5 161q-62 155 -83 190q-40 68 -115 75z" />
<glyph unicode="w" horiz-adv-x="1677" d="M-2 903v29l8 8q105 -12 146 -12h79q43 0 166 12l9 -8v-25l-9 -8q-104 -9 -104 -80q0 -60 97 -311q31 -83 44 -121l101 -266l98 235q12 31 33.5 80t43.5 106q56 151 68 226q-10 39 -31.5 77t-84.5 48l-13 10v29l8 8q105 -12 127 -12h80q68 0 146 12l8 -8v-25l-8 -8 q-90 -10 -90 -80q0 -33 23.5 -102.5t39.5 -117.5t33 -91q39 -103 45 -121l100 -266l99 235q14 35 38.5 94.5t49.5 127.5q59 163 59 241q0 45 -33 60.5t-74 19.5l-8 8v25l8 8q82 -12 150 -12h84q16 0 139 12l6 -8v-29l-10 -10q-71 -8 -110 -74q-52 -85 -105 -224.5 t-72 -190.5q-47 -124 -55 -142l-104 -262l-125 -10l-19 10l-241 623q-32 -80 -68 -177q-60 -163 -70 -184l-104 -262l-125 -10l-20 10l-123 328q-6 17 -50.5 126t-69.5 174q-62 155 -83 190q-40 68 -115 75z" />
<glyph unicode="x" horiz-adv-x="1075" d="M29 0v29l12 10q66 12 90 27q34 21 74 71q114 141 256 346q-49 66 -111.5 151t-142.5 185q-54 67 -135 74l-13 10v29l9 8q105 -12 153 -12h80q35 0 158 12l8 -8v-25l-8 -8q-41 -4 -71 -14t-30 -45q0 -22 77 -130t118 -159q54 65 104 141q78 119 78 139q0 41 -16.5 50.5 t-63.5 17.5l-8 8v25l8 8q82 -12 131 -12h84q21 0 144 12l8 -8v-29l-12 -10q-93 -11 -146 -65q-20 -19 -49 -59t-56.5 -79t-52.5 -72q-40 -53 -100 -139q47 -63 94.5 -123.5t83.5 -108.5q82 -107 88 -110q29 -39 65 -64.5t101 -35.5l13 -10v-29l-9 -8q-105 12 -153 12h-80 q-37 0 -160 -12l-8 8v25l8 8q35 2 59.5 16t24.5 27.5t-7 32t-30 54.5q-43 65 -176 247q-143 -171 -184 -235t-41 -73q0 -35 25.5 -47t72.5 -20l8 -8v-25l-8 -8q-55 8 -129 8h-84q-65 0 -143 -8z" />
<glyph unicode="y" horiz-adv-x="1052" d="M-2 903v29l8 8q105 -12 146 -12h79q43 0 166 12l9 -8v-25l-9 -8q-104 -9 -104 -80q0 -52 66.5 -232.5t74.5 -199.5l103 -266l96 235q14 35 38.5 94.5t48.5 127.5q60 163 60 241q0 45 -32.5 60.5t-73.5 19.5l-8 8v25l8 8q80 -12 149 -12h84q23 0 137 12l9 -8v-29l-11 -10 q-37 -4 -56 -20.5t-39.5 -51.5t-44 -84t-47.5 -106.5t-47.5 -116.5t-43 -110.5t-32.5 -89.5t-19 -52l-201 -500q-53 -133 -144.5 -197.5t-197.5 -90.5q-30 -6 -74 -6l-16 4l-4 49l8 10q103 0 152 35q110 76 167 225l66 166l-141 371q-8 18 -27.5 67t-44.5 109 q-64 156 -89 221t-43 96q-39 65 -114 72z" />
<glyph unicode="z" horiz-adv-x="999" d="M80 8v29q146 146 388 535q108 175 148 276l-8 8h-194q-153 0 -200 -32q-26 -17 -36 -43.5t-18 -65.5l-8 -8h-35l-15 10l17 215l6 12q270 -12 398 -12h239q69 0 119 12l12 -16l-6 -33q-54 -54 -132.5 -165.5t-134 -192t-105.5 -160.5q-127 -204 -165 -279l8 -8h105 q244 0 293 19.5t67.5 51.5t38.5 87l6 8h45l-32 -244l-11 -20l-354 6l-147 2h-66q-133 0 -209 -8z" />
<glyph unicode="{" horiz-adv-x="520" d="M43 659v21q96 3 129 107q18 57 18 182l-2 157l-2 140q0 144 50 210q61 80 225 80l4 -22q-137 -15 -150 -146q-4 -40 -4 -83l4 -293q0 -302 -192 -342q192 -40 192 -342l-2 -154l-2 -139q0 -108 20.5 -146.5t50.5 -57.5t83 -26l-4 -22q-165 0 -225 81q-50 66 -50 210 l4 303q0 118 -16 169q-34 109 -131 113z" />
<glyph unicode="|" horiz-adv-x="485" d="M162 -225q24 205 24 618v749q0 231 -24 423l2 8h155l5 -8q-25 -157 -25 -324v-848q0 -417 25 -618l-5 -8h-155z" />
<glyph unicode="}" horiz-adv-x="518" d="M53 -195q98 12 131 76q25 51 25 154l-4 293q0 298 192 342q-192 40 -192 342l4 293q0 102 -21 143q-37 74 -135 86l4 22q164 0 225 -80q50 -66 50 -210v-60l-2 -165v-72q0 -125 16 -175.5t45 -81t84 -32.5v-21q-94 -3 -127 -103q-18 -54 -18 -131v-120l2 -170v-61 q0 -144 -50 -210q-60 -81 -225 -81z" />
<glyph unicode="~" horiz-adv-x="980" d="M135 414q0 39 37 80q70 77 150 77l366 -18q35 0 71 8t62 45l25 -16q0 -6 -10.5 -32t-31.5 -54q-57 -72 -138 -72l-392 19q-51 0 -71.5 -13.5t-40.5 -38.5z" />
<glyph unicode="&#xa1;" horiz-adv-x="460" d="M133 879q0 39 27.5 66.5t66.5 27.5t69 -27.5t30 -66.5t-30 -69t-69 -30t-66.5 30t-27.5 69zM137 -383q2 20 4 48t6.5 74t8.5 116.5t8 176.5q13 333 18 605l13 8l71 -35l10 -12q14 -753 46 -987l2 -60l-11 -6l-168 54z" />
<glyph unicode="&#xa2;" horiz-adv-x="1054" d="M88 434q0 193 127 318q119 118 307 139q-4 170 -20 283l4 8h156l4 -8q-12 -67 -23 -279q92 -4 169 -26.5t118 -45.5l6 -18l-23 -158h-43l-8 6q0 107 -147 139q-39 9 -74 11q-2 -74 -2 -141v-422q0 -78 2 -156q162 4 299 76l21 -21l-31 -57q-117 -82 -285 -100 q12 -196 21 -254l-4 -9h-156l-4 9q9 62 20 254q-185 17 -305 132q-129 123 -129 320zM244 446.5q0 -137.5 69.5 -231.5t208.5 -123q4 156 4 293v275q0 65 -2 139q-136 -23 -210 -122q-70 -93 -70 -230.5z" />
<glyph unicode="&#xa3;" horiz-adv-x="1087" d="M88 23v47q182 142 215 312q10 52 10 88v51q0 16 -2 32h-209l41 86h160q-29 215 -29 297q0 197 94.5 311.5t268.5 114.5q165 0 273 -108q40 -40 65 -97l-27 -186h-55l-8 8q-12 137 -62.5 205.5t-160.5 68.5q-120 0 -176 -85q-48 -72 -48 -214q0 -66 7.5 -146.5 t11.5 -168.5h305l-21 -86h-280v-23q0 -350 -180 -432l4 -6q182 -14 275 -23.5t138 -9.5t82 8.5t58.5 25t32 44t22.5 66.5l10 12h55l-75 -285l-19 -20q-123 68 -548 87q-113 5 -207 5z" />
<glyph unicode="&#xa4;" horiz-adv-x="1187" d="M113 883l61 61l164 -162q126 90 258.5 90t247.5 -90l166 160l61 -59l-162 -164q90 -121 90 -252.5t-88 -247.5l164 -164l-63 -61l-166 162q-240 -183 -504 0l-164 -162l-59 61l160 164q-90 111 -90.5 248.5t92.5 251.5zM291 469q0 -127 89 -216t216 -89q126 0 213 89 q88 90 88 216q0 127 -88 215q-90 90 -214 90q-62 0 -117.5 -23.5t-97.5 -64.5q-89 -87 -89 -217z" />
<glyph unicode="&#xa5;" horiz-adv-x="1437" d="M70 1307v36l10 9q139 -17 182 -17h86q66 0 230 17l8 -9v-36l-8 -9q-92 -4 -119 -23t-27 -33q0 -22 21 -52q74 -135 139 -256t143 -254q206 347 267 508q8 22 8 43t-14.5 33t-36 18t-47 8t-48.5 8l-8 9v36l8 9q77 -13 189 -13h118q107 0 189 13l8 -9v-36l-8 -9 q-90 -12 -129 -36.5t-63.5 -53t-87.5 -122.5q-116 -170 -224 -367h277v-90h-328q-21 -42 -21 -109h349v-90h-349v-97q0 -106 5.5 -159t20.5 -75.5t32 -37.5q23 -20 108 -20l11 -8l6 -37l-4 -8l-230 12h-39l-231 -12l-2 8l4 37l10 8q85 0 109 20q16 14 31.5 37t18.5 58.5 t4 55t2 48.5t1 70v100h-348v90h348q-3 58 -25 109h-323v90h272q-112 191 -206 338.5t-113 168.5t-38 36q-31 27 -122 36z" />
<glyph unicode="&#xa6;" horiz-adv-x="493" d="M166 -225q24 204 24 385v124q0 77 -24 269l2 8h156l4 -8q-25 -157 -25 -228v-165q0 -199 25 -385l-4 -8h-156zM166 786q24 204 24 385v127q0 75 -24 267l2 8h156l4 -8q-25 -157 -25 -227v-167q0 -196 25 -385l-4 -8h-156z" />
<glyph unicode="&#xa7;" horiz-adv-x="864" d="M102 669.5q0 59.5 6.5 91.5t21.5 63q31 67 95 141q-43 65 -43 139.5t27 134t72 107.5q99 104 233 104q92 0 166 -57l4 -17l-88 -166h-10q-25 57 -73 87t-96 30t-84 -29.5t-36 -84t26.5 -94.5t64.5 -75.5t80 -67.5q302 -230 302 -403q0 -106 -135 -249q22 -48 22 -115.5 t-23.5 -130t-63.5 -107.5q-84 -94 -210 -94q-53 0 -94 19.5t-90 64.5l-2 12l102 138l7 -2q16 -59 58 -87t91 -28t90 30.5t41 78t-22.5 80t-57 65.5t-79 64.5t-101 73.5t-98 84t-65.5 79q-38 61 -38 120.5zM199 795q0 -51 55 -108q90 -95 340 -302q41 33 52 58.5t11 60.5 t-9 59.5t-47 64.5q-53 56 -333 283q-69 -66 -69 -116z" />
<glyph unicode="&#xa8;" horiz-adv-x="450" d="M0 1291q0 38 24.5 65.5t59.5 27.5t60.5 -27.5t25.5 -65.5t-25.5 -63.5t-60.5 -25.5t-59.5 25.5t-24.5 63.5zM281 1291q0 38 24.5 65.5t59.5 27.5t60.5 -27.5t25.5 -65.5t-26 -63.5t-60 -25.5q-35 0 -59.5 25.5t-24.5 63.5z" />
<glyph unicode="&#xa9;" horiz-adv-x="1484" d="M121 725q0 255 181 434q182 180 439 180q129 0 243 -48t198 -132q182 -182 182 -434q0 -129 -49 -242.5t-134 -196.5t-201 -131.5t-245 -48.5t-240.5 49.5t-194.5 133.5t-131 196.5t-48 239.5zM193 725q0 -230 159 -395q159 -164 381 -164q236 0 397.5 161.5t161.5 397.5 q0 232 -162 392q-164 163 -390 163q-114 0 -213 -44t-173 -119q-161 -162 -161 -392zM393 723q0 155 90 251q97 103 269 103q123 0 221 -39l2 -14l-17 -102h-55l-12 10q-6 41 -52 56.5t-116 15.5t-125 -43q-86 -78 -86 -223.5t71.5 -216t182.5 -70.5t203 67l18 -29l-24 -57 q-97 -55 -196 -55t-164.5 25.5t-112.5 70.5q-97 94 -97 250z" />
<glyph unicode="&#xaa;" horiz-adv-x="727" d="M102 923q0 69 44 107.5t102 57.5q82 26 198 26q-4 101 -24.5 129.5t-40 33.5t-39.5 5t-41.5 -2t-42.5 -11q-50 -22 -53 -71l-4 -6h-33l-10 94l4 8q27 27 97.5 40.5t102.5 13.5q176 0 177 -187l-2 -163l-2 -132q0 -47 24.5 -55t58.5 -8l5 -37q-46 4 -99 4l-84 -2l-8 8 q8 46 8 90l-4 6q-80 -116 -162 -116t-127 49t-45 118zM199 928q0 -47 26.5 -69.5t67.5 -22.5t78 23t48 41q21 33 21 46l6 111q-120 0 -164 -16.5t-63.5 -41t-19.5 -71.5z" />
<glyph unicode="&#xab;" horiz-adv-x="950" d="M96 492q187 231 271 362l14 8h119l10 -20q-138 -138 -287 -350q157 -219 287 -349l-10 -20h-119l-14 8q-71 111 -145.5 204t-125.5 157zM426 492q197 243 270 362l17 8h118l11 -20q-138 -138 -287 -350q157 -219 287 -349l-11 -20h-118l-17 8q-75 117 -147 207t-123 154z " />
<glyph unicode="&#xac;" horiz-adv-x="1294" d="M158 592v106h983v-458h-109v352h-874z" />
<glyph unicode="&#xad;" horiz-adv-x="964" d="M137 436l19 107h673l-20 -107h-672z" />
<glyph unicode="&#xae;" horiz-adv-x="1484" d="M121 725q0 255 181 434q182 180 439 180q129 0 243 -48t198 -132q182 -182 182 -434q0 -129 -49 -242.5t-134 -196.5t-201 -131.5t-245 -48.5t-240.5 49.5t-194.5 133.5t-131 196.5t-48 239.5zM193 725q0 -230 159 -395q159 -164 381 -164q236 0 397.5 161.5t161.5 397.5 q0 232 -162 392q-164 163 -390 163q-114 0 -213 -44t-173 -119q-161 -162 -161 -392zM461 412l2 32q59 4 75 48q11 30 11 145v272q0 55 -14.5 95t-71.5 45v41h246q141 0 195 -50.5t54 -126.5q0 -112 -105 -167q-30 -15 -60 -23q100 -136 140 -181q89 -98 144 -98v-32l-67 -4 q-43 0 -73 12t-61 46q-35 37 -178 245h-63q0 -165 12 -204.5t29.5 -52t44.5 -12.5l4 -30h-264zM635 801q0 -23 11 -26t26 -3h55q72 0 106.5 36t34.5 95t-36.5 92t-102.5 33h-94v-227z" />
<glyph unicode="&#xb0;" horiz-adv-x="696" d="M98 1114q0 47 16.5 89t48.5 75q68 70 188 70t183.5 -72t63.5 -170q0 -94 -62 -159q-64 -68 -190 -68q-183 0 -234 146q-14 42 -14 89zM184 1111q0 -69 41 -120t122 -51t121 47t40 118t-40 123t-125 52t-122 -50t-37 -119z" />
<glyph unicode="&#xb1;" horiz-adv-x="983" d="M166 143l18 109h635l-20 -109h-633zM166 610l18 109h254v213h107v-213h274l-20 -109h-254v-235h-107v235h-272z" />
<glyph unicode="&#xb2;" horiz-adv-x="727" d="M121 633v24q39 49 101.5 117t121.5 138q145 174 145 257q0 45 -25.5 80t-103.5 35q-150 0 -161 -154h-47l-13 111q70 121 228 121q219 0 219 -191q0 -72 -48.5 -145.5t-105.5 -138t-105 -114.5t-48 -75h67q136 0 164.5 11.5t39.5 31t21 54.5h29l-18 -164l-11 -10l-215 6 h-110q-28 0 -115 -6z" />
<glyph unicode="&#xb3;" horiz-adv-x="692" d="M109 735l12 90h43q17 -149 164 -149q68 0 121 40t53 110.5t-37 118.5t-113 48h-30l12 43q63 2 97 46t34 100.5t-43 86t-96 29.5t-97.5 -30.5t-44.5 -96.5q0 -14 2 -20h-45l-10 90q29 58 58 78q64 43 156.5 43t150 -54.5t57.5 -125.5q0 -104 -109 -158q76 -16 111 -65.5 t35 -100.5t-18.5 -94t-52.5 -78q-76 -78 -191 -78q-142 0 -219 127z" />
<glyph unicode="&#xb4;" horiz-adv-x="448" d="M0 1171l6 15l369 207q35 -2 54.5 -22.5t19.5 -45t-9 -43.5l-413 -158l-15 6z" />
<glyph unicode="&#xb5;" horiz-adv-x="1314" d="M98 897v29l6 6h37q129 0 181 8l71 10l13 -18q-13 -26 -13 -86v-72l-6 -309q0 -133 16 -199q20 -96 84 -143t137.5 -47t127 25.5t93.5 62.5q80 74 99 155v339q0 56 -3 84t-6 50q-6 47 -24 62q-20 25 -51 30t-63 5l-9 8v29l9 6h37q129 0 178 8l71 10l13 -18 q-13 -26 -13 -86v-72l-2 -66l-2 -120v-230l6 -198q7 -82 31 -101q22 -22 113 -22l8 -8l4 -29l-4 -8q-74 8 -158 8t-147 -6l-12 20q6 27 10 72l8 90q-123 -199 -340 -199q-126 0 -208 59q-30 21 -42 52l-6 -4q-23 -249 -47 -340l-10 -12h-19q-96 0 -131 51v12q77 150 105 387 q8 62 8 103v200l-6 306q-3 39 -23 65q-29 33 -115 33z" />
<glyph unicode="&#xb6;" horiz-adv-x="1085" d="M76 977.5q0 100.5 24.5 160.5t65.5 105q89 98 219 98h40l113 -2h263l188 13l4 -9l-6 -36l-10 -9q-75 0 -109 -20q-16 -14 -30.5 -35.5t-19.5 -76.5q-7 -78 -7 -201v-675q0 -319 6 -368q11 -87 51 -115q26 -20 109 -20l10 -6l6 -37l-4 -8q-14 2 -47 3t-68 3q-68 4 -114 4 h-176q-45 0 -97.5 -3t-85 -4t-47.5 -3l-4 8l6 37l11 6q76 0 98 16.5t39.5 40t21.5 82.5l4 326v326q-299 0 -410 214q-44 85 -44 185.5zM592 -168l4 -8h162l4 8q-23 160 -25 274.5t-2 188.5v457q0 335 27 501l-4 9h-162l-4 -9q24 -172 24 -501v-457q0 -253 -24 -463z" />
<glyph unicode="&#xb7;" horiz-adv-x="464" d="M137 498q0 39 28 68.5t66.5 29.5t68.5 -29.5t30 -68.5t-30 -67t-69 -28t-66.5 28t-27.5 67z" />
<glyph unicode="&#xb8;" horiz-adv-x="413" d="M0 -365l27 48h14q62 -25 141 -25q111 0 111 82q0 94 -107 94q-44 0 -98 -14l-18 22l104 158h70l-62 -104q35 8 88.5 8t98.5 -42t45 -91.5t-17.5 -80t-47.5 -54.5q-67 -52 -161 -52q-86 0 -186 39z" />
<glyph unicode="&#xb9;" horiz-adv-x="550" d="M113 1206v23l2 8q129 66 194 125h8l29 -10q-8 -88 -8 -312v-250q0 -93 12 -110.5t23 -26.5q23 -18 76 -18l6 -27l-99 4h-101.5t-59 -1t-37 -2t-25.5 -1l6 27q58 0 74 13q28 23 32.5 52t5.5 44.5t1 35.5v388q0 33 -4 73z" />
<glyph unicode="&#xba;" horiz-adv-x="765" d="M98 1051q0 125 76 209q81 88 209 88q68 0 121 -25t90 -67q74 -84 74 -212q0 -120 -71 -199q-80 -89 -214 -89q-139 0 -215 91q-70 84 -70 204zM186 1053q0 -94 52 -162q58 -74 145 -74q91 0 143 69q49 63 49 158q0 152 -114 216q-37 20 -85 20t-84 -19.5t-60 -50.5 q-46 -63 -46 -157z" />
<glyph unicode="&#xbb;" horiz-adv-x="950" d="M109 143q141 144 284 349q-148 211 -284 350l8 20h119l16 -8q88 -137 270 -362q-200 -246 -270 -361l-16 -8h-119zM438 143q143 147 287 349q-141 200 -287 350l11 20h118l15 -8q61 -95 101 -146t79 -102t92 -114q-53 -63 -92 -113.5t-72 -92.5q-58 -74 -108 -155l-15 -8 h-118z" />
<glyph unicode="&#xbc;" horiz-adv-x="1390" d="M121 39v8q142 163 245 305t158 217l248 338q76 104 158 220t153 243l11 8h155l-2 -8q-173 -191 -362 -463l-246 -338q-55 -78 -102.5 -143.5t-88.5 -126.5q-45 -66 -163 -252l-9 -8h-155zM129 1206v23l4 8q132 67 195 125h8l26 -10q-6 -99 -6 -312v-112q0 -189 10.5 -230 t29 -52t50.5 -11l7 -27q-32 4 -105 4h-81.5t-52.5 -1t-36.5 -2t-25.5 -1l6 27q57 0 80 18q22 22 26 54q6 48 6 192v269q0 33 -4 73zM786 268l275 449l119 16l14 -10q-8 -64 -8 -426h98l6 -6l-16 -53l-8 -7h-80q0 -137 11 -169.5t32.5 -43t58.5 -10.5l4 -24l-112 4h-78 l-62 -2q-18 0 -35.5 -1t-25.5 -1l6 24q77 0 97 48q14 36 14 175h-287l-10 7zM889 297h207q0 262 -4 344z" />
<glyph unicode="&#xbd;" horiz-adv-x="1433" d="M127 39v8q142 163 245 305t158 217l248 338q221 302 312 463l10 8h155l-2 -8q-184 -211 -362 -463l-246 -338q-55 -78 -102 -143.5t-89 -126.5q-45 -65 -163 -252l-8 -8h-156zM127 1206v23l4 8q132 67 195 125h8l28 -10q-8 -88 -8 -312v-250q0 -94 12 -111q33 -44 78 -44 l7 -27q-32 4 -105 4h-82t-52 -1t-36.5 -2t-25.5 -1l6 27q57 0 72 13q29 24 33.5 52.5t5.5 44t1 35.5v388q0 33 -4 73zM848 4v25q39 49 101.5 116.5t121.5 138.5q146 174 146 257q0 45 -26 79.5t-104 34.5q-150 0 -161 -153h-47l-13 110q70 121 228 121q219 0 219 -190 q0 -110 -133 -261q-52 -59 -105 -111t-80 -93l4 -8h74q136 0 164.5 11t39.5 30.5t21 54.5h29l-18 -164l-11 -10l-215 6h-110q-28 0 -115 -6z" />
<glyph unicode="&#xbe;" horiz-adv-x="1472" d="M109 735l10 90h43q18 -149 164 -149q71 0 108 30q68 54 68 122.5t-38 116.5t-114 48h-31l13 43q63 2 97 46t34 100.5t-43 86t-96 29.5t-97.5 -30.5t-44.5 -96.5q0 -12 2 -20h-45l-10 90q29 58 58 78q64 43 156.5 43t150 -54.5t57.5 -125.5q0 -104 -109 -158 q76 -16 111 -65.5t35 -100.5t-18.5 -94t-52.5 -78q-76 -78 -191 -78q-144 0 -217 127zM203 39l2 8q173 206 260.5 326.5t142.5 195.5l248 338q210 288 311 463l9 8h155l-2 -8q-113 -125 -200 -242.5t-160 -220.5l-246 -338q-55 -78 -102.5 -143.5t-89.5 -126.5 q-81 -118 -162 -252l-11 -8h-155zM868 268l275 449l119 16l14 -10q-8 -64 -8 -426h98l6 -6l-16 -53l-8 -7h-80q0 -137 11 -169.5t32.5 -43t58.5 -10.5l4 -24l-112 4h-78l-62 -2q-18 0 -35.5 -1t-25.5 -1l6 24q77 0 97 48q14 36 14 175h-287l-10 7zM971 297h207q0 262 -4 344 z" />
<glyph unicode="&#xbf;" horiz-adv-x="849" d="M96 -127q0 94 46 179t101.5 160t102.5 139.5t51 119.5l9 127l12 12l71 35l13 -8q2 -53 5 -111.5t3 -87.5q0 -84 -43 -154.5t-94 -139t-94 -143.5t-43 -145.5t18 -109.5t48 -66q58 -51 124.5 -51t112 18.5t77.5 51.5q68 69 80 162l6 6h35l25 -191l-4 -18q-33 -53 -147 -86 q-93 -27 -157.5 -27t-123 14.5t-110.5 51.5q-124 88 -124 262zM356 879q0 39 28 66.5t68 27.5t69.5 -27.5t29.5 -66.5t-29.5 -69t-69.5 -30t-68 30t-28 69z" />
<glyph unicode="&#xc0;" horiz-adv-x="1382" d="M-39 -4l4 37l10 8q69 0 97 15q55 31 100 122q6 10 11 23.5t16.5 40t29 70.5t45 115t67.5 173t82 211t70.5 179.5t53 132t44 108.5t27.5 69l121 62h23l336 -930q46 -142 68 -190.5t36.5 -81.5t38 -60.5t47.5 -41.5q32 -17 103 -17l10 -8l6 -37l-4 -8l-203 12h-67l-232 -12 l-4 8l6 37l8 8q59 0 92 13.5t33 66.5t-31.5 138t-78.5 214l-35 98h-459l-35 -98q-47 -129 -78.5 -214t-31.5 -138t32.5 -66.5t92.5 -13.5l10 -8l6 -37l-4 -8l-219 12h-39l-203 -12zM459 1671q0 25 18.5 44.5t52.5 21.5l371 -205l4 -14l-10 -41l-16 -7l-412 158q-8 18 -8 43z M467 659h391l-194 527z" />
<glyph unicode="&#xc1;" horiz-adv-x="1382" d="M-39 -4l4 37l10 8q69 0 97 15q55 31 100 122q6 10 11 23.5t16.5 40t29 70.5t45 115t67.5 173t82 211t70.5 179.5t53 132t44 108.5t27.5 69l121 62h23l336 -930q46 -142 68 -190.5t36.5 -81.5t38 -60.5t47.5 -41.5q32 -17 103 -17l10 -8l6 -37l-4 -8l-203 12h-67l-232 -12 l-4 8l6 37l8 8q59 0 92 13.5t33 66.5t-31.5 138t-78.5 214l-35 98h-459l-35 -98q-47 -129 -78.5 -214t-31.5 -138t32.5 -66.5t92.5 -13.5l10 -8l6 -37l-4 -8l-219 12h-39l-203 -12zM459 1518l6 14l369 205q35 -2 53 -21.5t18 -39.5q0 -33 -6 -48l-414 -158l-14 7zM467 659 h391l-194 527z" />
<glyph unicode="&#xc2;" horiz-adv-x="1382" d="M-39 -4l4 37l10 8q69 0 97 15q55 31 100 122q6 10 11 23.5t16.5 40t29 70.5t45 115t67.5 173t82 211t70.5 179.5t53 132t44 108.5t27.5 69l121 62h23l336 -930q46 -142 68 -190.5t36.5 -81.5t38 -60.5t47.5 -41.5q32 -17 103 -17l10 -8l6 -37l-4 -8l-203 12h-67l-232 -12 l-4 8l6 37l8 8q59 0 92 13.5t33 66.5t-31.5 138t-78.5 214l-35 98h-459l-35 -98q-47 -129 -78.5 -214t-31.5 -138t32.5 -66.5t92.5 -13.5l10 -8l6 -37l-4 -8l-219 12h-39l-203 -12zM449 1507l6 15l225 202h16l226 -202l6 -15l-13 -41l-14 -6l-213 127l-213 -127l-14 6z M467 659h391l-194 527z" />
<glyph unicode="&#xc3;" horiz-adv-x="1382" d="M-39 -4l4 37l10 8q69 0 97 15q55 31 100 122q6 10 11 23.5t16.5 40t29 70.5t45 115t67.5 173t82 211t70.5 179.5t53 132t44 108.5t27.5 69l121 62h23l336 -930q46 -142 68 -190.5t36.5 -81.5t38 -60.5t47.5 -41.5q32 -17 103 -17l10 -8l6 -37l-4 -8l-203 12h-67l-232 -12 l-4 8l6 37l8 8q59 0 92 13.5t33 66.5t-31.5 138t-78.5 214l-35 98h-459l-35 -98q-47 -129 -78.5 -214t-31.5 -138t32.5 -66.5t92.5 -13.5l10 -8l6 -37l-4 -8l-219 12h-39l-203 -12zM365 1540q46 156 186 156q87 0 139 -10q93 -19 141 -19t82.5 8t63.5 45l24 -16 q-22 -104 -106 -144q-31 -14 -93.5 -14t-147.5 14.5t-143 14.5t-78.5 -13.5t-41.5 -37.5zM467 659h391l-194 527z" />
<glyph unicode="&#xc4;" horiz-adv-x="1382" d="M-39 -4l4 37l10 8q69 0 97 15q55 31 100 122q6 10 11 23.5t16.5 40t29 70.5t45 115t67.5 173t82 211t70.5 179.5t53 132t44 108.5t27.5 69l121 62h23l336 -930q46 -142 68 -190.5t36.5 -81.5t38 -60.5t47.5 -41.5q32 -17 103 -17l10 -8l6 -37l-4 -8l-203 12h-67l-232 -12 l-4 8l6 37l8 8q59 0 92 13.5t33 66.5t-31.5 138t-78.5 214l-35 98h-459l-35 -98q-47 -129 -78.5 -214t-31.5 -138t32.5 -66.5t92.5 -13.5l10 -8l6 -37l-4 -8l-219 12h-39l-203 -12zM438 1625q0 38 24.5 65.5t59.5 27.5t60.5 -27.5t25.5 -65.5t-25.5 -63.5t-60.5 -25.5 t-59.5 25.5t-24.5 63.5zM467 659h391l-194 527zM760 1625q0 38 24.5 65.5t58.5 27.5t59.5 -27.5t25.5 -65.5t-25.5 -63.5t-59.5 -25.5t-58.5 25.5t-24.5 63.5z" />
<glyph unicode="&#xc5;" horiz-adv-x="1384" d="M-39 -4l4 37l10 8q69 0 97 15q55 31 100 122q6 10 11 23.5t16.5 40t29 70.5t45 115t67.5 173t81 208t68.5 175.5t51.5 130.5q56 139 79 191q-53 16 -80 57t-27 90t45 95t124 46t124 -48t45 -105q0 -80 -76 -121l322 -887q46 -142 68 -190.5t36.5 -81.5t38 -60.5 t47.5 -41.5q32 -17 103 -17l10 -8l6 -37l-4 -8l-203 12h-67l-232 -12l-4 8l6 37l8 8q59 0 92 13.5t33 66.5t-31.5 138t-78.5 214l-35 98h-459l-35 -98q-47 -129 -78.5 -214t-31.5 -138t32.5 -66.5t92.5 -13.5l10 -8l6 -37l-4 -8l-219 12h-39l-203 -12zM467 659h391l-194 527 zM590 1444q0 -37 26.5 -69t67.5 -32t65.5 31t24.5 67t-25.5 68.5t-68.5 32.5t-66.5 -30.5t-23.5 -67.5z" />
<glyph unicode="&#xc6;" horiz-adv-x="1777" d="M-61 -4l4 37l10 8q37 4 85 11t72 24q40 29 68.5 70.5t58 88t72.5 118t97.5 160.5t111.5 185q160 268 204 344t68.5 118t24.5 72t-14.5 44t-73.5 22l-8 9l-6 36l4 9q14 -2 53 -4t85 -4q83 -5 153 -5h278l346 9l8 -21l-8 -223h-51l-8 8q-4 47 -11.5 73.5t-41 39t-101 14.5 t-190.5 2h-137q-13 -157 -13 -491q125 4 205 5t100 23q46 52 46 107l8 8l37 4l6 -4q-8 -90 -8 -176.5t8 -186.5l-6 -4l-39 4l-6 7q0 60 -41 106q-25 27 -102 27t-208 2v-234q0 -215 11 -301q2 -39 43 -39h114q238 0 289 21.5t66.5 55.5t29.5 89l6 8h54l-37 -260l-17 -20 l-295 8h-354l-229 -12l-4 8l6 37l8 8q84 0 105.5 17t36 40t17.5 58.5t4 59.5t2 74t1 140v242h-326q-219 -371 -250 -432q-53 -103 -53 -142t34 -48t83 -9l10 -8l6 -37l-6 -8l-252 12h-39l-204 -12v8zM659 750h277v313q0 55 -1 91t-1 60z" />
<glyph unicode="&#xc7;" horiz-adv-x="1333" d="M113 664q0 304 175 493q190 205 513 205q236 0 416 -70l6 -18l-27 -187h-59l-7 9q-11 83 -119 124q-84 33 -223 33q-203 0 -309 -85q-203 -163 -203 -496q0 -282 158 -438q151 -150 391 -150t406 115l20 -23l-45 -92q-186 -101 -399 -107l-47 -81q21 8 75 8t99 -42 t45 -91.5t-17.5 -80t-47.5 -54.5q-65 -52 -160 -52q-87 0 -187 39l-2 12l27 48h14q62 -25 142 -25q110 0 110 82q0 94 -106 94q-45 0 -99 -14l-18 22l90 138q-280 20 -447 207q-165 185 -165 477z" />
<glyph unicode="&#xc8;" horiz-adv-x="1169" d="M88 -4l6 37l10 8q83 0 104 17t36.5 40t19.5 80l4 152v722q0 152 -19.5 182t-35.5 44q-26 20 -109 20l-10 9l-6 36l4 9l250 -13h336l344 9l10 -21l-8 -223h-51l-8 8q-4 47 -11.5 73.5t-41 39t-101.5 14.5t-190 2h-197l-4 -80q-6 -87 -6 -162v-249q61 2 122.5 2t111.5 2 q110 4 132 30q16 16 28.5 33t12.5 47l10 10l35 5l8 -5q-10 -118 -10 -168.5t10 -175.5l-8 -4l-37 4l-8 7q0 63 -41 106q-23 23 -101.5 26t-140.5 3h-124v-319q0 -119 10 -216q0 -39 41 -39h174q239 0 288.5 21.5t65 55.5t29.5 89l8 8h53l-36 -260l-17 -20l-295 8h-413 l-230 -12zM369 1628q-23 53 9 88q19 19 54 21l371 -205l6 -14l-12 -41l-17 -7z" />
<glyph unicode="&#xc9;" horiz-adv-x="1169" d="M88 -4l6 37l10 8q83 0 104 17t36.5 40t19.5 80l4 152v722q0 152 -19.5 182t-35.5 44q-26 20 -109 20l-10 9l-6 36l4 9l250 -13h336l344 9l10 -21l-8 -223h-51l-8 8q-4 47 -11.5 73.5t-41 39t-101.5 14.5t-190 2h-197l-4 -80q-6 -87 -6 -162v-249q61 2 122.5 2t111.5 2 q110 4 132 30q16 16 28.5 33t12.5 47l10 10l35 5l8 -5q-10 -118 -10 -168.5t10 -175.5l-8 -4l-37 4l-8 7q0 63 -41 106q-23 23 -101.5 26t-140.5 3h-124v-319q0 -119 10 -216q0 -39 41 -39h174q239 0 288.5 21.5t65 55.5t29.5 89l8 8h53l-36 -260l-17 -20l-295 8h-413 l-230 -12zM360 1518l7 14l370 205q35 -2 53.5 -21.5t18.5 -44t-8 -43.5l-414 -158l-14 7z" />
<glyph unicode="&#xca;" horiz-adv-x="1169" d="M88 -4l6 37l10 8q83 0 104 17t36.5 40t19.5 80l4 152v722q0 152 -19.5 182t-35.5 44q-26 20 -109 20l-10 9l-6 36l4 9l250 -13h336l344 9l10 -21l-8 -223h-51l-8 8q-4 47 -11.5 73.5t-41 39t-101.5 14.5t-190 2h-197l-4 -80q-6 -87 -6 -162v-249q61 2 122.5 2t111.5 2 q110 4 132 30q16 16 28.5 33t12.5 47l10 10l35 5l8 -5q-10 -118 -10 -168.5t10 -175.5l-8 -4l-37 4l-8 7q0 63 -41 106q-23 23 -101.5 26t-140.5 3h-124v-319q0 -119 10 -216q0 -39 41 -39h174q239 0 288.5 21.5t65 55.5t29.5 89l8 8h53l-36 -260l-17 -20l-295 8h-413 l-230 -12zM365 1507l6 15l225 202h16l226 -202l6 -15l-13 -41l-14 -6l-213 127l-213 -127l-14 6z" />
<glyph unicode="&#xcb;" horiz-adv-x="1169" d="M88 -4l6 37l10 8q83 0 104 17t36.5 40t19.5 80l4 152v722q0 152 -19.5 182t-35.5 44q-26 20 -109 20l-10 9l-6 36l4 9l250 -13h336l344 9l10 -21l-8 -223h-51l-8 8q-4 47 -11.5 73.5t-41 39t-101.5 14.5t-190 2h-197l-4 -80q-6 -87 -6 -162v-249q61 2 122.5 2t111.5 2 q110 4 132 30q16 16 28.5 33t12.5 47l10 10l35 5l8 -5q-10 -118 -10 -168.5t10 -175.5l-8 -4l-37 4l-8 7q0 63 -41 106q-23 23 -101.5 26t-140.5 3h-124v-319q0 -119 10 -216q0 -39 41 -39h174q239 0 288.5 21.5t65 55.5t29.5 89l8 8h53l-36 -260l-17 -20l-295 8h-413 l-230 -12zM340 1625q0 38 24.5 65.5t59.5 27.5t60.5 -27.5t25.5 -65.5t-25.5 -63.5t-60.5 -25.5t-59.5 25.5t-24.5 63.5zM662 1625q0 38 24.5 65.5t58.5 27.5q35 0 60.5 -27.5t25.5 -65.5t-25.5 -63.5t-60.5 -25.5t-59 25.5t-24 63.5z" />
<glyph unicode="&#xcc;" horiz-adv-x="681" d="M88 -4l6 37l10 8q83 0 104 17t36.5 40t19.5 80l4 152v639q0 228 -19.5 261.5t-36.5 47.5q-24 20 -108 20l-10 9l-6 36l4 9l230 -13h38l230 13l4 -9l-6 -36l-8 -9q-85 0 -106 -17t-35.5 -39.5t-17.5 -66t-4 -68t-2 -57t-1 -79.5v-618q0 -216 19.5 -246.5t35.5 -45.5 q26 -20 111 -20l8 -8l6 -37l-4 -8l-230 12h-38l-230 -12zM117 1671q0 25 18.5 44.5t52.5 21.5l371 -205l6 -14l-12 -41l-14 -7l-414 158q-8 18 -8 43z" />
<glyph unicode="&#xcd;" horiz-adv-x="681" d="M88 -4l6 37l10 8q83 0 104 17t36.5 40t19.5 80l4 152v639q0 228 -19.5 261.5t-36.5 47.5q-24 20 -108 20l-10 9l-6 36l4 9l230 -13h38l230 13l4 -9l-6 -36l-8 -9q-85 0 -106 -17t-35.5 -39.5t-17.5 -66t-4 -68t-2 -57t-1 -79.5v-618q0 -216 19.5 -246.5t35.5 -45.5 q26 -20 111 -20l8 -8l6 -37l-4 -8l-230 12h-38l-230 -12zM117 1518l6 14l371 205q35 -2 53 -21.5t18 -44t-8 -43.5l-412 -158l-16 7z" />
<glyph unicode="&#xce;" horiz-adv-x="681" d="M88 -4l6 37l10 8q83 0 104 17t36.5 40t19.5 80l4 152v639q0 228 -19.5 261.5t-36.5 47.5q-24 20 -108 20l-10 9l-6 36l4 9l230 -13h38l230 13l4 -9l-6 -36l-8 -9q-85 0 -106 -17t-35.5 -39.5t-17.5 -66t-4 -68t-2 -57t-1 -79.5v-618q0 -216 19.5 -246.5t35.5 -45.5 q26 -20 111 -20l8 -8l6 -37l-4 -8l-230 12h-38l-230 -12zM102 1507l7 15l225 202h14l227 -202l7 -15l-13 -41l-16 -6l-211 127l-213 -127l-16 6z" />
<glyph unicode="&#xcf;" horiz-adv-x="681" d="M88 -4l6 37l10 8q83 0 104 17t36.5 40t19.5 80l4 152v639q0 228 -19.5 261.5t-36.5 47.5q-24 20 -108 20l-10 9l-6 36l4 9l230 -13h38l230 13l4 -9l-6 -36l-8 -9q-85 0 -106 -17t-35.5 -39.5t-17.5 -66t-4 -68t-2 -57t-1 -79.5v-618q0 -216 19.5 -246.5t35.5 -45.5 q26 -20 111 -20l8 -8l6 -37l-4 -8l-230 12h-38l-230 -12zM104 1625q0 38 25 65.5t59 27.5q35 0 60.5 -27.5t25.5 -65.5t-25.5 -63.5t-60.5 -25.5t-59.5 25.5t-24.5 63.5zM426 1625q0 38 24.5 65.5t59.5 27.5t60.5 -27.5t25.5 -65.5t-25.5 -63.5t-60.5 -25.5t-59.5 25.5 t-24.5 63.5z" />
<glyph unicode="&#xd0;" horiz-adv-x="1505" d="M90 -4l6 37l10 8q82 0 104 15q46 32 56 122l4 152v338h-180l16 90h164v242q0 113 -4 162q-7 81 -51 116q-36 20 -109 20l-10 9l-6 36l4 9l211 -13h117l295 9q309 0 497 -201q179 -191 179 -474.5t-174 -472.5q-187 -204 -514 -204l-273 4h-108l-230 -12zM416 473 q0 -243 6 -295.5t26.5 -66t73.5 -13.5h197q236 0 375 167q133 158 133 407q0 253 -137 408q-142 161 -381 161h-283q-10 -147 -10 -232v-251h364l-16 -90h-348v-195z" />
<glyph unicode="&#xd1;" horiz-adv-x="1527" d="M88 -4l6 37l10 8q80 0 101.5 15t37 39t19.5 60.5t5 56t1 48.5v792q0 135 -18.5 173.5t-36.5 52.5q-26 20 -109 20l-10 9l-6 36l4 9l197 -13h71q61 0 95 9l10 -7q15 -55 73 -153q125 -211 233 -383t223.5 -330t148.5 -205l2 56v643q0 233 -19.5 264t-35.5 45 q-26 20 -111 20l-8 9l-6 36l4 9l190 -13h96q102 0 193 13l2 -9l-4 -36l-10 -9q-86 0 -109 -20q-16 -14 -29.5 -36.5t-16.5 -66t-4 -68t-2 -57t-1 -79.5v-482q0 -325 14 -497l-16 -10l-127 8l-21 24l-729 1092l-2 -92v-606q0 -262 18.5 -297t36.5 -49q30 -21 113 -21l10 -8 l7 -37l-5 -8l-213 12h-38l-230 -12zM432 1540q46 156 186 156q86 0 140 -10q94 -19 141 -19t82 8t63 45l25 -16q-21 -103 -107 -144q-30 -14 -92.5 -14t-147.5 14.5t-143.5 14.5t-79 -13.5t-40.5 -37.5z" />
<glyph unicode="&#xd2;" d="M113 659q0 303 176 497q186 206 494 206q159 0 284 -55.5t210 -150.5q175 -196 175 -482q0 -288 -174 -484q-190 -213 -510 -213q-310 0 -490 204q-165 185 -165 478zM272 674q0 -272 142 -430q140 -158 371 -158q118 0 213.5 46t161.5 126q134 164 134 414 q0 254 -139 414q-144 167 -385 167q-235 0 -370 -165q-128 -156 -128 -414zM500 1671q0 25 18.5 44.5t52.5 21.5l369 -205l6 -14l-10 -41l-16 -7l-412 158q-8 18 -8 43z" />
<glyph unicode="&#xd3;" d="M113 659q0 303 176 497q186 206 494 206q159 0 284 -55.5t210 -150.5q175 -196 175 -482q0 -288 -174 -484q-190 -213 -510 -213q-310 0 -490 204q-165 185 -165 478zM272 674q0 -272 142 -430q140 -158 371 -158q118 0 213.5 46t161.5 126q134 164 134 414 q0 254 -139 414q-144 167 -385 167q-235 0 -370 -165q-128 -156 -128 -414zM616 1518l7 14l368 205q35 -2 53.5 -21.5t18.5 -43t-6 -44.5l-414 -158l-16 7z" />
<glyph unicode="&#xd4;" d="M113 659q0 303 176 497q186 206 494 206q159 0 284 -55.5t210 -150.5q175 -196 175 -482q0 -288 -174 -484q-190 -213 -510 -213q-310 0 -490 204q-165 185 -165 478zM272 674q0 -272 142 -430q140 -158 371 -158q118 0 213.5 46t161.5 126q134 164 134 414 q0 254 -139 414q-144 167 -385 167q-235 0 -370 -165q-128 -156 -128 -414zM563 1507l6 15l226 202h16l225 -202l6 -15l-12 -41l-14 -6l-213 127l-213 -127l-15 6z" />
<glyph unicode="&#xd5;" d="M113 659q0 303 176 497q186 206 494 206q159 0 284 -55.5t210 -150.5q175 -196 175 -482q0 -288 -174 -484q-190 -213 -510 -213q-310 0 -490 204q-165 185 -165 478zM272 674q0 -272 142 -430q140 -158 371 -158q118 0 213.5 46t161.5 126q134 164 134 414 q0 254 -139 414q-144 167 -385 167q-235 0 -370 -165q-128 -156 -128 -414zM467 1540q46 156 186 156q86 0 140 -10q94 -19 141 -19t82 8t63 45l25 -16q-21 -103 -106 -144q-31 -14 -93.5 -14t-147.5 14.5t-143.5 14.5t-79 -13.5t-40.5 -37.5z" />
<glyph unicode="&#xd6;" d="M113 659q0 303 176 497q186 206 494 206q159 0 284 -55.5t210 -150.5q175 -196 175 -482q0 -288 -174 -484q-190 -213 -510 -213q-310 0 -490 204q-165 185 -165 478zM272 674q0 -272 142 -430q140 -158 371 -158q118 0 213.5 46t161.5 126q134 164 134 414 q0 254 -139 414q-144 167 -385 167q-235 0 -370 -165q-128 -156 -128 -414zM539 1625q0 38 24.5 65.5t59.5 27.5t60.5 -27.5t25.5 -65.5t-26 -63.5t-60 -25.5q-35 0 -59.5 25.5t-24.5 63.5zM860 1625q0 38 24.5 65.5t59.5 27.5t60.5 -27.5t25.5 -65.5t-25.5 -63.5 t-60.5 -25.5t-59.5 25.5t-24.5 63.5z" />
<glyph unicode="&#xd7;" horiz-adv-x="946" d="M150 242l245 247l-245 246l75 76l246 -246l250 248l76 -76l-250 -248l250 -249l-76 -76l-250 250l-246 -248z" />
<glyph unicode="&#xd8;" d="M84 -39l4 8l186 215q-161 189 -161 475q0 300 178 497q186 206 491 206q237 0 404 -123l119 137l12 8h135l-4 -8l-180 -211q92 -94 139 -222t47 -266t-44 -264t-130 -223q-190 -213 -510 -213q-253 0 -418 132l-121 -140l-10 -8h-137zM274 689.5q0 -242.5 101 -390.5 l725 840q-142 114 -328 114q-235 0 -370 -165q-128 -156 -128 -398.5zM444 215q133 -129 336 -129q238 0 380 172q134 161 134 414q0 232 -120 387z" />
<glyph unicode="&#xd9;" horiz-adv-x="1480" d="M53 1343l4 9l230 -13h39l229 13l4 -9l-6 -36l-8 -9q-84 0 -105.5 -17t-36 -39.5t-17.5 -66t-4 -68t-2 -57t-1 -79.5v-459q0 -221 99.5 -317.5t275.5 -96.5t276 96.5t100 317.5v459q0 232 -20 262.5t-37 44.5q-23 20 -108 20l-11 9l-6 36l4 9l207 -13h45l219 13l4 -9 l-6 -36l-8 -9q-84 0 -105 -17t-36 -39.5t-18 -64t-4 -66t-2 -59t-1 -83.5v-514q0 -213 -121 -339q-132 -139 -372 -139q-271 0 -404 139q-117 123 -117 339v597q0 151 -19 181.5t-36 44.5q-26 20 -108 20l-11 9zM498 1671q0 25 18.5 44.5t52.5 21.5l371 -205l4 -14l-10 -41 l-16 -7l-412 158q-8 18 -8 43z" />
<glyph unicode="&#xda;" horiz-adv-x="1480" d="M53 1343l4 9l230 -13h39l229 13l4 -9l-6 -36l-8 -9q-84 0 -105.5 -17t-36 -39.5t-17.5 -66t-4 -68t-2 -57t-1 -79.5v-459q0 -221 99.5 -317.5t275.5 -96.5t276 96.5t100 317.5v459q0 232 -20 262.5t-37 44.5q-23 20 -108 20l-11 9l-6 36l4 9l207 -13h45l219 13l4 -9 l-6 -36l-8 -9q-84 0 -105 -17t-36 -39.5t-18 -64t-4 -66t-2 -59t-1 -83.5v-514q0 -213 -121 -339q-132 -139 -372 -139q-271 0 -404 139q-117 123 -117 339v597q0 151 -19 181.5t-36 44.5q-26 20 -108 20l-11 9zM555 1518l6 14l371 205q35 -2 53.5 -21.5t18.5 -44t-9 -43.5 l-411 -158l-17 7z" />
<glyph unicode="&#xdb;" horiz-adv-x="1480" d="M53 1343l4 9l230 -13h39l229 13l4 -9l-6 -36l-8 -9q-84 0 -105.5 -17t-36 -39.5t-17.5 -66t-4 -68t-2 -57t-1 -79.5v-459q0 -221 99.5 -317.5t275.5 -96.5t276 96.5t100 317.5v459q0 232 -20 262.5t-37 44.5q-23 20 -108 20l-11 9l-6 36l4 9l207 -13h45l219 13l4 -9 l-6 -36l-8 -9q-84 0 -105 -17t-36 -39.5t-18 -64t-4 -66t-2 -59t-1 -83.5v-514q0 -213 -121 -339q-132 -139 -372 -139q-271 0 -404 139q-117 123 -117 339v597q0 151 -19 181.5t-36 44.5q-26 20 -108 20l-11 9zM504 1507l4 15l227 202h15l227 -202l4 -15l-10 -41l-17 -6 l-211 127l-213 -127l-16 6z" />
<glyph unicode="&#xdc;" horiz-adv-x="1480" d="M53 1343l4 9l230 -13h39l229 13l4 -9l-6 -36l-8 -9q-84 0 -105.5 -17t-36 -39.5t-17.5 -66t-4 -68t-2 -57t-1 -79.5v-459q0 -221 99.5 -317.5t275.5 -96.5t276 96.5t100 317.5v459q0 232 -20 262.5t-37 44.5q-23 20 -108 20l-11 9l-6 36l4 9l207 -13h45l219 13l4 -9 l-6 -36l-8 -9q-84 0 -105 -17t-36 -39.5t-18 -64t-4 -66t-2 -59t-1 -83.5v-514q0 -213 -121 -339q-132 -139 -372 -139q-271 0 -404 139q-117 123 -117 339v597q0 151 -19 181.5t-36 44.5q-26 20 -108 20l-11 9zM528 1625q0 38 25 65.5t59 27.5q35 0 60.5 -27.5t25.5 -65.5 t-25.5 -63.5t-60.5 -25.5t-59.5 25.5t-24.5 63.5zM850 1625q0 38 24.5 65.5t59.5 27.5t60.5 -27.5t25.5 -65.5t-25.5 -63.5t-60.5 -25.5t-59.5 25.5t-24.5 63.5z" />
<glyph unicode="&#xdd;" horiz-adv-x="1253" d="M-16 1307v36l10 9q139 -17 182 -17h86q66 0 230 17l8 -9v-36l-8 -9q-92 -4 -119 -23t-27 -33q0 -22 21 -52q74 -135 139 -256t143 -254q206 347 267 508q8 22 8 43t-14.5 33t-36 18t-47 8t-48.5 8l-8 9v36l8 9q77 -13 189 -13h118q107 0 189 13l8 -9v-36l-8 -9 q-90 -12 -129 -36.5t-63.5 -53t-69.5 -96t-89 -137.5t-79 -128.5t-62.5 -107.5t-45.5 -79q-38 -64 -38 -119v-191q0 -114 5.5 -171.5t20.5 -80t32 -37.5q23 -20 108 -20l10 -8l7 -37l-4 -8l-230 12h-39l-231 -12l-2 8l4 37l10 8q85 0 109 20q16 14 31.5 37t18.5 58.5t4 55 t2 48.5t1 70v182q0 57 -16.5 93t-40 78t-61.5 105.5t-79 131t-84 134t-69 108.5q-36 59 -78 98q-37 29 -127 38zM485 1518l7 14l368 205q35 -2 53.5 -21.5t18.5 -43t-6 -44.5l-414 -158l-16 7z" />
<glyph unicode="&#xde;" horiz-adv-x="1099" d="M88 -4l6 37l10 8q83 0 104 17t36.5 40t19.5 80l4 152v722q0 149 -19.5 180.5t-35.5 45.5q-26 20 -109 20l-10 9l-6 36l4 9l230 -13h38l230 13l4 -9l-6 -36l-8 -9q-85 0 -114 -24q-52 -43 -52 -129v-72h106q386 0 474 -219q28 -68 28 -168t-49 -177t-126 -121 q-135 -77 -358 -77h-75q0 -89 5 -140q7 -70 50 -110q26 -20 111 -20l8 -8l6 -37l-4 -8l-230 12h-38l-230 -12zM414 401h147q320 0 320 293q0 281 -318 281h-149v-574z" />
<glyph unicode="&#xdf;" horiz-adv-x="1183" d="M70 0l2 29l8 8q83 0 101.5 17t27 37t11.5 64q5 73 5 324v367h-147l-8 10v37l8 8l147 31v59q0 372 204 479q69 37 154 37t145 -22.5t101 -60.5q86 -80 86 -185q0 -70 -33.5 -123t-74.5 -98t-75 -88t-34 -91t30 -82t74 -66t96 -65.5t96 -78.5q104 -106 104 -258 q0 -159 -107 -245q-84 -67 -196 -67q-66 0 -127.5 24t-98.5 50l-4 19l25 211h35l6 -9q0 -92 40 -151.5t117 -59.5t125 53.5t48 135.5t-28 129t-71 81t-91 60.5t-91 57.5q-98 72 -98 188q0 74 32.5 134.5t71.5 113.5t72 103t33 95.5t-14.5 78t-42.5 59.5q-59 57 -143.5 57 t-128.5 -37t-68 -96q-36 -93 -36 -281v-560q0 -222 7 -273q5 -109 93 -120q23 -3 48 -3l10 -10l4 -27l-4 -8l-184 8h-56l-204 -8z" />
<glyph unicode="&#xe0;" horiz-adv-x="1015" d="M76 228.5q0 95.5 34.5 151.5t90 91t128 55.5t141.5 29.5q115 15 198 15h28q-4 134 -25 194q-42 116 -210 116q-139 0 -201 -75q-24 -30 -29 -77l-8 -6h-45l-18 151l6 13q37 45 218 77q54 9 118 9t127 -19.5t109 -58.5q100 -85 100 -233l-9 -502q7 -82 31 -101 q22 -22 113 -22l8 -8l2 -29l-2 -8q-74 8 -158 8t-147 -6l-12 20l18 152l-2 6q-96 -132 -238 -178q-51 -17 -110 -17t-108.5 23t-81.5 60q-66 73 -66 168.5zM221 260q0 -78 45 -124t102.5 -46t100.5 14.5t81 37.5q82 48 114 94q19 32 22 59l10 205h-18q-457 0 -457 -240z M227 1326q0 24 18.5 44.5t53.5 22.5l369 -207l6 -15l-10 -41l-17 -6l-414 158q-6 20 -6 44z" />
<glyph unicode="&#xe1;" horiz-adv-x="1015" d="M76 228.5q0 95.5 34.5 151.5t90 91t128 55.5t141.5 29.5q115 15 198 15h28q-4 134 -25 194q-42 116 -210 116q-139 0 -201 -75q-24 -30 -29 -77l-8 -6h-45l-18 151l6 13q37 45 218 77q54 9 118 9t127 -19.5t109 -58.5q100 -85 100 -233l-9 -502q7 -82 31 -101 q22 -22 113 -22l8 -8l2 -29l-2 -8q-74 8 -158 8t-147 -6l-12 20l18 152l-2 6q-96 -132 -238 -178q-51 -17 -110 -17t-108.5 23t-81.5 60q-66 73 -66 168.5zM221 260q0 -78 45 -124t102.5 -46t100.5 14.5t81 37.5q82 48 114 94q19 32 22 59l10 205h-18q-457 0 -457 -240z M336 1171l6 15l369 207q35 -2 54 -22.5t19 -45t-8 -43.5l-414 -158l-14 6z" />
<glyph unicode="&#xe2;" horiz-adv-x="1015" d="M76 228.5q0 95.5 34.5 151.5t90 91t128 55.5t141.5 29.5q115 15 198 15h28q-4 134 -25 194q-42 116 -210 116q-139 0 -201 -75q-24 -30 -29 -77l-8 -6h-45l-18 151l6 13q37 45 218 77q54 9 118 9t127 -19.5t109 -58.5q100 -85 100 -233l-9 -502q7 -82 31 -101 q22 -22 113 -22l8 -8l2 -29l-2 -8q-74 8 -158 8t-147 -6l-12 20l18 152l-2 6q-96 -132 -238 -178q-51 -17 -110 -17t-108.5 23t-81.5 60q-66 73 -66 168.5zM221 260q0 -78 45 -124t102.5 -46t100.5 14.5t81 37.5q82 48 114 94q19 32 22 59l10 205h-18q-457 0 -457 -240z M242 1161l6 15l225 202h16l226 -202l6 -15l-12 -39l-15 -6l-213 125l-211 -125l-16 6z" />
<glyph unicode="&#xe3;" horiz-adv-x="1015" d="M76 228.5q0 95.5 34.5 151.5t90 91t128 55.5t141.5 29.5q115 15 198 15h28q-4 134 -25 194q-42 116 -210 116q-139 0 -201 -75q-24 -30 -29 -77l-8 -6h-45l-18 151l6 13q37 45 218 77q54 9 118 9t127 -19.5t109 -58.5q100 -85 100 -233l-9 -502q7 -82 31 -101 q22 -22 113 -22l8 -8l2 -29l-2 -8q-74 8 -158 8t-147 -6l-12 20l18 152l-2 6q-96 -132 -238 -178q-51 -17 -110 -17t-108.5 23t-81.5 60q-66 73 -66 168.5zM166 1194q0 44 37 81q73 75 137.5 75t145.5 -9.5t143.5 -9.5t97.5 8.5t64 44.5l24 -16q0 -6 -10 -31.5t-31 -53.5 q-57 -73 -139 -73l-330 19q-51 0 -71.5 -13.5t-40.5 -37.5zM221 260q0 -78 45 -124t102.5 -46t100.5 14.5t81 37.5q82 48 114 94q19 32 22 59l10 205h-18q-457 0 -457 -240z" />
<glyph unicode="&#xe4;" horiz-adv-x="1015" d="M76 228.5q0 95.5 34.5 151.5t90 91t128 55.5t141.5 29.5q115 15 198 15h28q-4 134 -25 194q-42 116 -210 116q-139 0 -201 -75q-24 -30 -29 -77l-8 -6h-45l-18 151l6 13q37 45 218 77q54 9 118 9t127 -19.5t109 -58.5q100 -85 100 -233l-9 -502q7 -82 31 -101 q22 -22 113 -22l8 -8l2 -29l-2 -8q-74 8 -158 8t-147 -6l-12 20l18 152l-2 6q-96 -132 -238 -178q-51 -17 -110 -17t-108.5 23t-81.5 60q-66 73 -66 168.5zM221 260q0 -78 45 -124t102.5 -46t100.5 14.5t81 37.5q82 48 114 94q19 32 22 59l10 205h-18q-457 0 -457 -240z M246 1281q0 38 24.5 65.5t58.5 27.5t59.5 -27.5t25.5 -65.5t-26 -63.5t-59.5 -25.5t-58 25.5t-24.5 63.5zM567 1281q0 38 23.5 65.5t58.5 27.5t60.5 -27.5t25.5 -65.5t-25.5 -63.5t-60.5 -25.5t-58.5 25.5t-23.5 63.5z" />
<glyph unicode="&#xe5;" horiz-adv-x="1015" d="M76 228.5q0 95.5 34.5 151.5t90 91t128 55.5t141.5 29.5q115 15 198 15h28q-4 134 -25 194q-42 116 -210 116q-139 0 -201 -75q-24 -30 -29 -77l-8 -6h-45l-18 151l6 13q37 45 218 77q54 9 118 9t127 -19.5t109 -58.5q100 -85 100 -233l-9 -502q7 -82 31 -101 q22 -22 113 -22l8 -8l2 -29l-2 -8q-74 8 -158 8t-147 -6l-12 20l18 152l-2 6q-96 -132 -238 -178q-51 -17 -110 -17t-108.5 23t-81.5 60q-66 73 -66 168.5zM221 260q0 -78 45 -124t102.5 -46t100.5 14.5t81 37.5q82 48 114 94q19 32 22 59l10 205h-18q-457 0 -457 -240z M360 1249q0 57 45 103.5t124 46.5t124 -48t45 -103.5t-43 -100.5t-125 -45q-80 0 -128 48q-42 42 -42 99zM436 1250q0 -36 26.5 -67.5t67.5 -31.5t66 29.5t25 65.5t-26 70t-69 34t-66.5 -32t-23.5 -68z" />
<glyph unicode="&#xe6;" horiz-adv-x="1662" d="M76 228.5q0 95.5 34.5 151.5t90 91t128 55.5t141.5 29.5q115 15 198 15h28q-4 134 -25 194q-42 116 -210 116q-139 0 -201 -75q-24 -30 -29 -77l-8 -6h-45l-18 151l6 13q37 45 218 77q54 9 132 9t160 -41t121 -119h8q59 72 154.5 116t175 44t145.5 -14.5t127 -54.5 q147 -96 178 -304l-12 -49l-35 -14l-455 -5h-243q-2 -14 -2 -27v-58.5t22.5 -116t70.5 -123.5t125 -85t211 -32t242 62l23 -13v-37l-21 -22q-49 -39 -139 -71t-201 -32q-270 0 -407 203h-8q-159 -203 -420 -203q-121 0 -194 83q-66 73 -66 168.5zM221 260q0 -78 45 -124 t102.5 -46t100.5 14.5t81 37.5q82 48 114 94q19 32 22 59l10 205h-18q-457 0 -457 -240zM852 616h80q185 0 434 13q45 3 45 43q0 23 -8 43q-23 78 -84.5 122t-141.5 44t-133 -21.5t-92 -57.5q-79 -73 -100 -186z" />
<glyph unicode="&#xe7;" horiz-adv-x="1042" d="M92 471q0 222 154 363q152 139 370 139q98 0 185.5 -24.5t132.5 -49.5l6 -18l-22 -158h-44l-8 6q0 119 -177 145q-44 7 -107.5 7t-132 -34t-113.5 -91q-88 -110 -88 -277q0 -168 96 -277q106 -120 299 -120q70 0 155 21.5t146 54.5l21 -21l-31 -57q-91 -63 -236 -92 q-53 -11 -104 -11l-51 -81q36 8 67 8q72 0 117 -42t45 -91.5t-16.5 -80t-45.5 -54.5q-66 -52 -161 -52q-92 0 -187 39l-2 12l27 48h14q63 -25 142 -25q108 0 108 82q0 55 -30.5 74.5t-75.5 19.5t-99 -14l-16 22l92 140q-184 25 -304 156q-126 137 -126 333z" />
<glyph unicode="&#xe8;" horiz-adv-x="1075" d="M94 471q0 222 138 363q138 139 339 139q236 0 359 -181q49 -73 67 -192l-14 -49l-33 -14l-456 -5h-242q-2 -14 -2 -27v-58.5t22.5 -116t70.5 -123.5t124 -85t210.5 -32t244.5 62l20 -13v-37l-20 -22q-49 -39 -139.5 -71t-200 -32t-198.5 36t-154 101q-136 139 -136 357z M262 616h80q187 0 434 13q45 3 45 43q0 23 -8 43q-23 78 -84.5 122t-141.5 44t-132 -21.5t-91 -57.5q-81 -74 -102 -186zM289 1326q0 24 18.5 44.5t52.5 22.5l369 -207l6 -15l-10 -41l-16 -6l-414 158q-6 20 -6 44z" />
<glyph unicode="&#xe9;" horiz-adv-x="1075" d="M94 471q0 222 138 363q138 139 339 139q236 0 359 -181q49 -73 67 -192l-14 -49l-33 -14l-456 -5h-242q-2 -14 -2 -27v-58.5t22.5 -116t70.5 -123.5t124 -85t210.5 -32t244.5 62l20 -13v-37l-20 -22q-49 -39 -139.5 -71t-200 -32t-198.5 36t-154 101q-136 139 -136 357z M262 616h80q187 0 434 13q45 3 45 43q0 23 -8 43q-23 78 -84.5 122t-141.5 44t-132 -21.5t-91 -57.5q-81 -74 -102 -186zM395 1171l6 15l369 207q35 -2 53.5 -22.5t18.5 -38.5q0 -35 -6 -50l-414 -158l-14 6z" />
<glyph unicode="&#xea;" horiz-adv-x="1075" d="M94 471q0 222 138 363q138 139 339 139q236 0 359 -181q49 -73 67 -192l-14 -49l-33 -14l-456 -5h-242q-2 -14 -2 -27v-58.5t22.5 -116t70.5 -123.5t124 -85t210.5 -32t244.5 62l20 -13v-37l-20 -22q-49 -39 -139.5 -71t-200 -32t-198.5 36t-154 101q-136 139 -136 357z M262 616h80q187 0 434 13q45 3 45 43q0 23 -8 43q-23 78 -84.5 122t-141.5 44t-132 -21.5t-91 -57.5q-81 -74 -102 -186zM326 1161l4 15l227 202h14l228 -202l4 -15l-10 -39l-17 -6l-211 125l-213 -125l-16 6z" />
<glyph unicode="&#xeb;" horiz-adv-x="1075" d="M94 471q0 222 138 363q138 139 339 139q236 0 359 -181q49 -73 67 -192l-14 -49l-33 -14l-456 -5h-242q-2 -14 -2 -27v-58.5t22.5 -116t70.5 -123.5t124 -85t210.5 -32t244.5 62l20 -13v-37l-20 -22q-49 -39 -139.5 -71t-200 -32t-198.5 36t-154 101q-136 139 -136 357z M262 616h80q187 0 434 13q45 3 45 43q0 23 -8 43q-23 78 -84.5 122t-141.5 44t-132 -21.5t-91 -57.5q-81 -74 -102 -186zM315 1281q0 38 25 65.5t59 27.5q35 0 60.5 -27.5t25.5 -65.5t-25.5 -63.5t-60.5 -25.5t-59.5 25.5t-24.5 63.5zM637 1281q0 38 24.5 65.5t59.5 27.5 t60.5 -27.5t25.5 -65.5t-25.5 -63.5t-60.5 -25.5t-59.5 25.5t-24.5 63.5z" />
<glyph unicode="&#xec;" horiz-adv-x="565" d="M-20 1282q-23 52 10 88q18 21 53 23l371 -207l6 -15l-12 -41l-17 -6zM66 0l2 29l8 8q90 0 109 18t24.5 41t8.5 60q7 86 7 178v324q0 70 -5 113q-7 63 -27 86q-29 32 -115 32l-8 8v29l8 6h37q128 0 180 8l72 10l12 -18q-14 -28 -14 -154l-3 -68l-2 -122v-230 q0 -75 2.5 -109t3.5 -51.5t4 -49.5q7 -68 29 -89q25 -22 107 -22l10 -10l4 -27l-4 -8l-209 8h-28l-211 -8z" />
<glyph unicode="&#xed;" horiz-adv-x="565" d="M66 0l2 29l8 8q90 0 109 18t24.5 41t8.5 60q7 86 7 178v324q0 70 -5 113q-7 63 -27 86q-29 32 -115 32l-8 8v29l8 6h37q128 0 180 8l72 10l12 -18q-14 -28 -14 -154l-3 -68l-2 -122v-230q0 -75 2.5 -109t3.5 -51.5t4 -49.5q7 -68 29 -89q25 -22 107 -22l10 -10l4 -27 l-4 -8l-209 8h-28l-211 -8zM84 1171l6 15l369 207q35 -2 54 -22.5t19 -45t-8 -43.5l-413 -158l-15 6z" />
<glyph unicode="&#xee;" horiz-adv-x="565" d="M33 1161l6 15l225 202h17l225 -202l6 -15l-12 -39l-15 -6l-213 125l-211 -125l-16 6zM66 0l2 29l8 8q90 0 109 18t24.5 41t8.5 60q7 86 7 178v324q0 70 -5 113q-7 63 -27 86q-29 32 -115 32l-8 8v29l8 6h37q128 0 180 8l72 10l12 -18q-14 -28 -14 -154l-3 -68l-2 -122 v-230q0 -75 2.5 -109t3.5 -51.5t4 -49.5q7 -68 29 -89q25 -22 107 -22l10 -10l4 -27l-4 -8l-209 8h-28l-211 -8z" />
<glyph unicode="&#xef;" horiz-adv-x="565" d="M27 1281q0 38 24.5 65.5t59.5 27.5t60.5 -27.5t25.5 -65.5t-26 -63.5t-60 -25.5q-35 0 -59.5 25.5t-24.5 63.5zM66 0l2 29l8 8q90 0 109 18t24.5 41t8.5 60q7 86 7 178v324q0 70 -5 113q-7 63 -27 86q-29 32 -115 32l-8 8v29l8 6h37q128 0 180 8l72 10l12 -18 q-14 -28 -14 -154l-3 -68l-2 -122v-230q0 -75 2.5 -109t3.5 -51.5t4 -49.5q7 -68 29 -89q25 -22 107 -22l10 -10l4 -27l-4 -8l-209 8h-28l-211 -8zM348 1281q0 38 24.5 65.5t59.5 27.5t60.5 -27.5t25.5 -65.5t-25.5 -63.5t-60.5 -25.5t-59.5 25.5t-24.5 63.5z" />
<glyph unicode="&#xf0;" horiz-adv-x="1185" d="M94 475q0 211 126 349q136 149 364 149q82 0 167 -33t150 -109l6 3q-7 191 -129 391l-225 -90l-43 69l227 94q-34 80 -140 140q-26 14 -44 20l35 58q147 -41 256 -179l205 82l43 -69l-199 -80q176 -276 176 -674q0 -428 -256 -568q-92 -51 -223 -51t-225.5 43t-153.5 113 q-117 139 -117 342zM248 479q0 -163 85 -285q95 -137 254 -137q85 0 147.5 38t102.5 99q78 117 78 297t-89 286t-248 106q-169 0 -254 -127q-76 -113 -76 -277z" />
<glyph unicode="&#xf1;" horiz-adv-x="1247" d="M66 0l2 29l8 8q90 0 109 18t24.5 41t8.5 60q7 86 7 178v324q0 70 -5 113q-7 63 -27 86q-29 32 -115 32l-8 8v29l8 6h37q128 0 180 8l72 10l12 -18q-15 -42 -21 -162l7 -4q125 207 346 207q127 0 220 -68q101 -73 122 -217q8 -71 8 -231l2 -297q7 -82 27 -100 q27 -23 116 -23l6 -8l5 -29l-5 -8q-70 8 -154.5 8t-148.5 -6l-14 20q27 91 27 453q0 129 -18.5 212t-82 130t-139.5 47t-134.5 -28.5t-99 -70.5t-64.5 -88t-24 -79v-306q0 -55 3.5 -79.5t6.5 -56.5q7 -68 29 -89q25 -22 107 -22l10 -10l4 -27l-4 -8l-209 8h-28l-211 -8z M303 1194q46 156 186 156q77 0 135 -10q102 -19 147.5 -19t80.5 8t63 45l25 -16q-21 -103 -106 -144q-31 -14 -93.5 -14t-147.5 14.5t-143.5 14.5t-79 -13.5t-40.5 -37.5z" />
<glyph unicode="&#xf2;" horiz-adv-x="1193" d="M92 475q0 207 134 349q140 149 371 149q120 0 214 -42t159 -113q132 -144 132 -353q0 -204 -126 -338q-140 -150 -376 -150q-244 0 -384 156q-124 139 -124 342zM246 479q0 -162 92 -285q102 -137 261 -137q85 0 150.5 35t108.5 92q86 116 86 281q0 162 -92 285 q-102 137 -262 137q-166 0 -261 -129q-83 -114 -83 -279zM299 1325q0 25 18.5 45.5t53.5 22.5l370 -207l7 -15l-13 -41l-14 -6l-414 158q-8 18 -8 43z" />
<glyph unicode="&#xf3;" horiz-adv-x="1193" d="M92 475q0 207 134 349q140 149 371 149q120 0 214 -42t159 -113q132 -144 132 -353q0 -204 -126 -338q-140 -150 -376 -150q-244 0 -384 156q-124 139 -124 342zM246 479q0 -162 92 -285q102 -137 261 -137q85 0 150.5 35t108.5 92q86 116 86 281q0 162 -92 285 q-102 137 -262 137q-166 0 -261 -129q-83 -114 -83 -279zM430 1171l6 15l369 207q35 -2 54.5 -22.5t19.5 -45t-9 -43.5l-413 -158l-15 6z" />
<glyph unicode="&#xf4;" horiz-adv-x="1193" d="M92 475q0 207 134 349q140 149 371 149q120 0 214 -42t159 -113q132 -144 132 -353q0 -204 -126 -338q-140 -150 -376 -150q-244 0 -384 156q-124 139 -124 342zM246 479q0 -162 92 -285q102 -137 261 -137q85 0 150.5 35t108.5 92q86 116 86 281q0 162 -92 285 q-102 137 -262 137q-166 0 -261 -129q-83 -114 -83 -279zM371 1161l6 15l227 202h14l226 -202l6 -15l-10 -39l-17 -6l-213 125l-211 -125l-16 6z" />
<glyph unicode="&#xf5;" horiz-adv-x="1193" d="M92 475q0 207 134 349q140 149 371 149q120 0 214 -42t159 -113q132 -144 132 -353q0 -204 -126 -338q-140 -150 -376 -150q-244 0 -384 156q-124 139 -124 342zM246 479q0 -162 92 -285q102 -137 261 -137q85 0 150.5 35t108.5 92q86 116 86 281q0 162 -92 285 q-102 137 -262 137q-166 0 -261 -129q-83 -114 -83 -279zM258 1194q46 156 186 156q77 0 135 -10q102 -19 147.5 -19t80.5 8t63 45l25 -16q-21 -103 -107 -144q-30 -14 -92.5 -14t-147.5 14.5t-143.5 14.5t-79 -13.5t-40.5 -37.5z" />
<glyph unicode="&#xf6;" horiz-adv-x="1193" d="M92 475q0 207 134 349q140 149 371 149q120 0 214 -42t159 -113q132 -144 132 -353q0 -204 -126 -338q-140 -150 -376 -150q-244 0 -384 156q-124 139 -124 342zM246 479q0 -162 92 -285q102 -137 261 -137q85 0 150.5 35t108.5 92q86 116 86 281q0 162 -92 285 q-102 137 -262 137q-166 0 -261 -129q-83 -114 -83 -279zM350 1281q0 38 24.5 65.5t59.5 27.5t60.5 -27.5t25.5 -65.5t-25.5 -63.5t-60.5 -25.5t-59.5 25.5t-24.5 63.5zM672 1281q0 38 24.5 65.5t59.5 27.5t60.5 -27.5t25.5 -65.5t-25.5 -63.5t-60.5 -25.5t-59.5 25.5 t-24.5 63.5z" />
<glyph unicode="&#xf7;" horiz-adv-x="1157" d="M156 436l20 107h828l-19 -107h-829zM506 163q0 40 27.5 68.5t66.5 28.5t68.5 -28.5t29.5 -68.5t-29.5 -67.5t-68.5 -27.5t-66.5 27.5t-27.5 67.5zM506 813q0 39 27.5 68.5t66.5 29.5t68.5 -29.5t29.5 -68.5t-29.5 -66.5t-68.5 -27.5t-66.5 27.5t-27.5 66.5z" />
<glyph unicode="&#xf8;" horiz-adv-x="1193" d="M92 475q0 207 134 349q140 149 370 149q170 0 297 -88l68 78l12 6h137l-135 -158q127 -146 127 -346q0 -204 -126 -338q-140 -150 -376 -150q-168 0 -283 72l-67 -80l-12 -8h-138l4 8l127 146q-139 139 -139 360zM246 479q0 -142 73 -262l496 576q-94 94 -225 94 q-166 0 -261 -129q-83 -114 -83 -279zM391 135q86 -78 189.5 -78t169 35t108.5 92q86 116 86 281q0 126 -63 237z" />
<glyph unicode="&#xf9;" horiz-adv-x="1226" d="M39 897v29l6 6h37q128 0 180 8l72 10l12 -18q-12 -24 -12 -85v-73l-6 -309q0 -133 16 -199q20 -96 84 -143t137 -47t126.5 25.5t93.5 62.5q81 75 100 155v267q0 121 -6 174q-8 75 -28 97q-28 32 -114 32l-8 8v29l8 6h37q129 0 178 8l72 10l12 -18q-12 -24 -12 -85v-73 l-2 -66l-2 -120v-230l6 -198q7 -83 31 -101q22 -22 112 -22l9 -8l4 -29l-4 -8q-74 8 -158 8t-148 -6l-12 20q18 82 25 158l-6 4q-123 -199 -340 -199q-202 0 -293 140q-58 89 -56 241q0 58 -2 117l-2 167v149q0 30 -26 65q-29 33 -115 33zM307 1325q0 25 18.5 45.5 t53.5 22.5l369 -207l6 -15l-11 -41l-16 -6l-412 158q-8 18 -8 43z" />
<glyph unicode="&#xfa;" horiz-adv-x="1226" d="M39 897v29l6 6h37q128 0 180 8l72 10l12 -18q-12 -24 -12 -85v-73l-6 -309q0 -133 16 -199q20 -96 84 -143t137 -47t126.5 25.5t93.5 62.5q81 75 100 155v267q0 121 -6 174q-8 75 -28 97q-28 32 -114 32l-8 8v29l8 6h37q129 0 178 8l72 10l12 -18q-12 -24 -12 -85v-73 l-2 -66l-2 -120v-230l6 -198q7 -83 31 -101q22 -22 112 -22l9 -8l4 -29l-4 -8q-74 8 -158 8t-148 -6l-12 20q18 82 25 158l-6 4q-123 -199 -340 -199q-202 0 -293 140q-58 89 -56 241q0 58 -2 117l-2 167v149q0 30 -26 65q-29 33 -115 33zM385 1171l6 15l369 207 q35 -2 53 -22.5t18 -44t-6 -44.5l-413 -158l-17 6z" />
<glyph unicode="&#xfb;" horiz-adv-x="1226" d="M39 897v29l6 6h37q128 0 180 8l72 10l12 -18q-12 -24 -12 -85v-73l-6 -309q0 -133 16 -199q20 -96 84 -143t137 -47t126.5 25.5t93.5 62.5q81 75 100 155v267q0 121 -6 174q-8 75 -28 97q-28 32 -114 32l-8 8v29l8 6h37q129 0 178 8l72 10l12 -18q-12 -24 -12 -85v-73 l-2 -66l-2 -120v-230l6 -198q7 -83 31 -101q22 -22 112 -22l9 -8l4 -29l-4 -8q-74 8 -158 8t-148 -6l-12 20q18 82 25 158l-6 4q-123 -199 -340 -199q-202 0 -293 140q-58 89 -56 241q0 58 -2 117l-2 167v149q0 30 -26 65q-29 33 -115 33zM352 1161l4 15l228 202h14 l227 -202l4 -15l-10 -39l-16 -6l-213 125l-211 -125l-17 6z" />
<glyph unicode="&#xfc;" horiz-adv-x="1226" d="M39 897v29l6 6h37q128 0 180 8l72 10l12 -18q-12 -24 -12 -85v-73l-6 -309q0 -133 16 -199q20 -96 84 -143t137 -47t126.5 25.5t93.5 62.5q81 75 100 155v267q0 121 -6 174q-8 75 -28 97q-28 32 -114 32l-8 8v29l8 6h37q129 0 178 8l72 10l12 -18q-12 -24 -12 -85v-73 l-2 -66l-2 -120v-230l6 -198q7 -83 31 -101q22 -22 112 -22l9 -8l4 -29l-4 -8q-74 8 -158 8t-148 -6l-12 20q18 82 25 158l-6 4q-123 -199 -340 -199q-202 0 -293 140q-58 89 -56 241q0 58 -2 117l-2 167v149q0 30 -26 65q-29 33 -115 33zM344 1281q0 38 24.5 65.5 t59.5 27.5t60.5 -27.5t25.5 -65.5t-25.5 -63.5t-60.5 -25.5t-59.5 25.5t-24.5 63.5zM666 1281q0 38 24.5 65.5t59.5 27.5t60.5 -27.5t25.5 -65.5t-26 -63.5t-60 -25.5q-35 0 -59.5 25.5t-24.5 63.5z" />
<glyph unicode="&#xfd;" horiz-adv-x="1052" d="M-2 903v29l8 8q105 -12 146 -12h79q43 0 166 12l9 -8v-25l-9 -8q-104 -9 -104 -80q0 -52 66.5 -232.5t74.5 -199.5l103 -266l96 235q14 35 38.5 94.5t48.5 127.5q60 163 60 241q0 45 -32.5 60.5t-73.5 19.5l-8 8v25l8 8q80 -12 149 -12h84q23 0 137 12l9 -8v-29l-11 -10 q-37 -4 -56 -20.5t-39.5 -51.5t-44 -84t-47.5 -106.5t-47.5 -116.5t-43 -110.5t-32.5 -89.5t-19 -52l-201 -500q-53 -133 -144.5 -197.5t-197.5 -90.5q-30 -6 -74 -6l-16 4l-4 49l8 10q103 0 152 35q110 76 167 225l66 166l-141 371q-8 18 -27.5 67t-44.5 109 q-64 156 -89 221t-43 96q-39 65 -114 72zM399 1171l7 15l368 207q35 -2 53.5 -22.5t18.5 -38.5q0 -35 -6 -50l-414 -158l-14 6z" />
<glyph unicode="&#xfe;" horiz-adv-x="1189" d="M8 -526l2 30l8 7q89 0 113 24q16 12 21.5 34.5t8.5 56.5t4 59.5t2 60.5t1 82v1294q0 244 -13.5 266.5t-26.5 37.5q-23 28 -108 28l-8 8v27l8 8h37q129 0 181 8l79 11l11 -19q-14 -43 -15.5 -201.5t-2.5 -255t-1 -168.5v-86q59 84 144.5 135.5t196 51.5t195.5 -41 t140 -108q109 -134 109 -337q0 -255 -153 -393q-129 -117 -296 -117q-225 0 -342 201v-188q0 -217 6 -307.5t11.5 -113t21.5 -36.5q25 -22 107 -22l10 -9l4 -28l-4 -6l-209 6h-29l-211 -6zM303 367q17 -94 87 -171q96 -106 239 -106q149 0 234 123q75 109 75 268 q0 72 -18.5 139.5t-56.5 119.5q-84 116 -230 116q-140 0 -239 -99q-86 -86 -91 -165v-225z" />
<glyph unicode="&#xff;" horiz-adv-x="1052" d="M-2 903v29l8 8q105 -12 146 -12h79q43 0 166 12l9 -8v-25l-9 -8q-104 -9 -104 -80q0 -52 66.5 -232.5t74.5 -199.5l103 -266l96 235q14 35 38.5 94.5t48.5 127.5q60 163 60 241q0 45 -32.5 60.5t-73.5 19.5l-8 8v25l8 8q80 -12 149 -12h84q23 0 137 12l9 -8v-29l-11 -10 q-37 -4 -56 -20.5t-39.5 -51.5t-44 -84t-47.5 -106.5t-47.5 -116.5t-43 -110.5t-32.5 -89.5t-19 -52l-201 -500q-53 -133 -144.5 -197.5t-197.5 -90.5q-30 -6 -74 -6l-16 4l-4 49l8 10q103 0 152 35q110 76 167 225l66 166l-141 371q-8 18 -27.5 67t-44.5 109 q-64 156 -89 221t-43 96q-39 65 -114 72zM281 1281q0 38 24.5 65.5t59.5 27.5t60.5 -27.5t25.5 -65.5t-26 -63.5t-60 -25.5q-35 0 -59.5 25.5t-24.5 63.5zM602 1281q0 38 24.5 65.5t59.5 27.5t60.5 -27.5t25.5 -65.5t-25.5 -63.5t-60.5 -25.5t-59.5 25.5t-24.5 63.5z" />
<glyph unicode="&#x152;" horiz-adv-x="1972" d="M115 659q0 309 161 497q177 206 508 206q92 0 178.5 -11.5t200.5 -11.5h318l344 9l10 -21l-8 -223h-53l-7 8q-4 47 -11 73.5t-41 39t-102.5 14.5t-191.5 2h-174l-6 -80q-6 -93 -6 -189v-222q150 2 234.5 4t113.5 30q12 12 26.5 41t14.5 60l10 8l35 4l8 -4 q-10 -113 -10 -182q0 -56 10 -181l-8 -4l-37 4l-8 7q0 33 -13.5 63.5t-27.5 42.5q-29 27 -118 27t-230 2v-319q0 -119 10 -216q2 -39 43 -39h154q236 0 287 21.5t66 55.5t30 89l8 8h53l-39 -260l-14 -20l-297 8h-315q-80 0 -168 -8q-165 -15 -250 -15q-335 0 -516 189 q-172 180 -172 493zM279 690q0 -455 316 -570q99 -36 185 -36t151.5 9t143.5 42q17 132 17 297v416q0 191 -26 266.5t-84 107t-179 31.5q-524 0 -524 -563z" />
<glyph unicode="&#x153;" horiz-adv-x="1918" d="M92 475q0 207 134 349q140 149 370 149q141 0 250.5 -61.5t165.5 -159.5h8q86 156 274 206q60 15 118 15t124 -14.5t127 -54.5q147 -96 178 -304l-14 -49l-33 -14l-455 -5h-243q-2 -14 -2 -27v-58.5t22.5 -116t70.5 -123.5t125 -85t211 -32t242 62l21 -13v-37l-19 -22 q-49 -39 -139 -71t-211 -32t-228.5 55.5t-164.5 151.5h-10q-55 -94 -160.5 -150.5t-244 -56.5t-234.5 43t-159 113q-124 139 -124 342zM246 479q0 -162 92 -285q102 -137 261 -137q85 0 150.5 35t108.5 92q86 116 86 281q0 162 -92 285q-102 137 -262 137q-166 0 -261 -129 q-83 -114 -83 -279zM1108 616h80q185 0 434 13q45 3 45 43q0 23 -8 43q-23 78 -84.5 122t-141.5 44t-133 -21.5t-92 -57.5q-79 -73 -100 -186z" />
<glyph unicode="&#x178;" horiz-adv-x="1253" d="M-16 1307v36l10 9q139 -17 182 -17h86q66 0 230 17l8 -9v-36l-8 -9q-92 -4 -119 -23t-27 -33q0 -22 21 -52q74 -135 139 -256t143 -254q206 347 267 508q8 22 8 43t-14.5 33t-36 18t-47 8t-48.5 8l-8 9v36l8 9q77 -13 189 -13h118q107 0 189 13l8 -9v-36l-8 -9 q-90 -12 -129 -36.5t-63.5 -53t-69.5 -96t-89 -137.5t-79 -128.5t-62.5 -107.5t-45.5 -79q-38 -64 -38 -119v-191q0 -114 5.5 -171.5t20.5 -80t32 -37.5q23 -20 108 -20l10 -8l7 -37l-4 -8l-230 12h-39l-231 -12l-2 8l4 37l10 8q85 0 109 20q16 14 31.5 37t18.5 58.5t4 55 t2 48.5t1 70v182q0 57 -16.5 93t-40 78t-61.5 105.5t-79 131t-84 134t-69 108.5q-36 59 -78 98q-37 29 -127 38zM387 1625q0 38 24.5 65.5t58.5 27.5t59.5 -27.5t25.5 -65.5t-25.5 -63.5t-59.5 -25.5t-58.5 25.5t-24.5 63.5zM709 1625q0 38 23.5 65.5t58.5 27.5t60.5 -27.5 t25.5 -65.5t-26 -63.5t-60 -25.5q-35 0 -58.5 25.5t-23.5 63.5z" />
<glyph unicode="&#x2c6;" horiz-adv-x="479" d="M0 1161l6 15l225 202h17l225 -202l6 -15l-12 -39l-14 -6l-213 125l-213 -125l-15 6z" />
<glyph unicode="&#x2dc;" horiz-adv-x="636" d="M0 1194q46 156 186 156q78 0 135 -10q102 -19 147.5 -19t80.5 8t63 45l25 -16q-21 -103 -107 -144q-30 -14 -92.5 -14t-147.5 14.5t-143.5 14.5t-79 -13.5t-40.5 -37.5z" />
<glyph unicode="&#x2000;" horiz-adv-x="868" />
<glyph unicode="&#x2001;" horiz-adv-x="1737" />
<glyph unicode="&#x2002;" horiz-adv-x="868" />
<glyph unicode="&#x2003;" horiz-adv-x="1737" />
<glyph unicode="&#x2004;" horiz-adv-x="579" />
<glyph unicode="&#x2005;" horiz-adv-x="434" />
<glyph unicode="&#x2006;" horiz-adv-x="289" />
<glyph unicode="&#x2007;" horiz-adv-x="289" />
<glyph unicode="&#x2008;" horiz-adv-x="217" />
<glyph unicode="&#x2009;" horiz-adv-x="347" />
<glyph unicode="&#x200a;" horiz-adv-x="96" />
<glyph unicode="&#x2010;" horiz-adv-x="964" d="M137 436l19 107h673l-20 -107h-672z" />
<glyph unicode="&#x2011;" horiz-adv-x="964" d="M137 436l19 107h673l-20 -107h-672z" />
<glyph unicode="&#x2012;" horiz-adv-x="964" d="M137 436l19 107h673l-20 -107h-672z" />
<glyph unicode="&#x2013;" horiz-adv-x="1122" d="M137 436l21 107h827l-18 -107h-830z" />
<glyph unicode="&#x2014;" horiz-adv-x="1609" d="M137 436l21 107h1315l-19 -107h-1317z" />
<glyph unicode="&#x2018;" horiz-adv-x="387" d="M111 1235q0 83 65 177q53 76 107 104h12l12 -13v-8q-47 -96 -47 -180q0 -23 11.5 -45.5t11.5 -47t-12.5 -38t-30.5 -21.5q-35 -16 -78 -16q-51 0 -51 88z" />
<glyph unicode="&#x2019;" horiz-adv-x="360" d="M115 1159v8q47 96 47 181q0 23 -11.5 45t-11.5 46.5t12.5 38t30.5 21.5q37 17 78 17q51 0 51 -89q0 -83 -65 -177q-55 -78 -107 -103h-12z" />
<glyph unicode="&#x201a;" horiz-adv-x="436" d="M104 -178q48 98 48 180q0 23 -11.5 45.5t-11.5 46.5t12.5 37.5t29.5 22.5q33 16 79 16q51 0 51 -88q0 -83 -65 -177q-53 -76 -107 -104h-12l-13 13v8z" />
<glyph unicode="&#x201c;" horiz-adv-x="698" d="M111 1235q0 83 65 177q53 76 107 104h12l12 -13v-8q-47 -96 -47 -180q0 -23 11.5 -45.5t11.5 -47t-12.5 -38t-30.5 -21.5q-35 -16 -78 -16q-51 0 -51 88zM422 1235q0 83 66 177q52 76 106 104h12l12 -13v-8q-47 -96 -47 -180q0 -23 11.5 -45.5t11.5 -47t-12.5 -38 t-29.5 -21.5q-34 -16 -79 -16q-51 0 -51 88z" />
<glyph unicode="&#x201d;" horiz-adv-x="671" d="M115 1159v8q47 96 47 181q0 23 -11.5 45t-11.5 46.5t12.5 38t30.5 21.5q37 17 78 17q51 0 51 -89q0 -83 -65 -177q-55 -78 -107 -103h-12zM426 1159v8q47 96 47 181q0 23 -11 45t-11 46.5t12 38t29 21.5q38 17 66.5 17t39 -9.5t15.5 -24.5q10 -28 10 -65t-19.5 -83 t-46.5 -84q-55 -78 -106 -103h-13z" />
<glyph unicode="&#x201e;" horiz-adv-x="765" d="M104 -178q48 98 48 180q0 23 -11.5 45.5t-11.5 46.5t12.5 37.5t29.5 22.5q33 16 79 16q51 0 51 -88q0 -83 -65 -177q-53 -76 -107 -104h-12l-13 13v8zM434 -178q47 96 47 180q0 23 -11 45.5t-11 46.5t12 37.5t29 22.5q34 16 80 16q51 0 51 -88q0 -83 -65 -177 q-52 -74 -107 -104h-13l-12 13v8z" />
<glyph unicode="&#x2022;" horiz-adv-x="667" d="M195 496q0 57 39.5 100t99.5 43q56 0 97.5 -43.5t41.5 -100t-43 -96t-99 -39.5t-96 39.5t-40 96.5z" />
<glyph unicode="&#x2026;" horiz-adv-x="1218" d="M127 72q0 39 26.5 68.5t66.5 29.5t69.5 -29.5t29.5 -68.5t-29.5 -67t-69.5 -28t-66.5 28t-26.5 67zM514 72q0 39 27.5 68.5t66.5 29.5t69 -29.5t30 -68.5t-30 -67t-69 -28t-66.5 28t-27.5 67zM901 72q0 39 27.5 68.5t66.5 29.5t69 -29.5t30 -68.5t-30 -67t-69 -28 t-66.5 28t-27.5 67z" />
<glyph unicode="&#x202f;" horiz-adv-x="347" />
<glyph unicode="&#x2039;" horiz-adv-x="618" d="M96 492q187 231 271 362l14 8h119l10 -20q-138 -138 -287 -350q157 -219 287 -349l-10 -20h-119l-14 8q-71 111 -145.5 204t-125.5 157z" />
<glyph unicode="&#x203a;" horiz-adv-x="618" d="M109 143q141 144 284 349q-148 211 -284 350l8 20h119l16 -8q88 -137 270 -362q-200 -246 -270 -361l-16 -8h-119z" />
<glyph unicode="&#x205f;" horiz-adv-x="434" />
<glyph unicode="&#x20ac;" horiz-adv-x="1292" d="M80 539l14 90h144v108h-158l16 90h154q42 240 188 383q153 152 375 152q191 0 334 -70l4 -18l-31 -187h-57l-6 9q-15 130 -161 151q-42 6 -110 6q-230 0 -330 -236q-36 -85 -53 -190h568l-17 -90h-561v-108h543l-16 -90h-519q27 -215 149 -341q112 -114 286 -114 q128 0 248 58q44 22 83 57l17 -23l-41 -92q-156 -107 -336 -107q-223 0 -377 154t-186 408h-164z" />
<glyph unicode="&#x2122;" horiz-adv-x="1603" d="M174 1223v114l8 13q19 -13 89 -13h209t126 13l6 -7l9 -120l-41 2q-6 37 -18 43q-26 12 -113 12h-9l-2 -141v-174q0 -111 12.5 -132.5t28 -25.5t39.5 -4l4 -37l-92 4h-72q-12 0 -43.5 -2t-44.5 -2l4 37q57 0 69 29q11 25 11 116v191q0 95 -4 141h-8q-92 0 -109.5 -9 t-23.5 -46zM668 766l6 37q39 0 55 28.5t23 116.5l12 191q6 85 6 119.5t-8 41.5t-25 7l-32 -2l-5 38q6 0 19.5 -1t28 -2l29 -2t20.5 -1h39q42 0 57 6q-11 0 64 -211.5t94 -252.5q8 12 61 145q94 235 117 319q8 -6 28 -6h64l94 6v-36h-37q-23 0 -27.5 -13.5t-4.5 -45.5v-52 q0 -22 4 -57l12 -174q11 -150 32 -160q9 -4 21 -4l27 2l6 -37l-94 4h-35l-49 -2q-15 0 -27 -1t-18 -1l4 37q27 0 44 11t17 35.5t-2 47.5t-4 51l-20 303l-185 -469h-82l-161 467q0 -16 -3.5 -38.5t-7.5 -71.5l-10 -174q-6 -73 -6 -96.5t4 -37.5t11 -20q9 -8 40 -8l6 -37 l-82 4h-32l-46 -2q-14 0 -25 -1t-17 -1z" />
<glyph unicode="&#xe000;" horiz-adv-x="942" d="M0 0v942h942v-942h-942z" />
</font>
</defs>
</svg>
